Полонейчик Иван Иванович | Эффективные психотехники (2008) DVDRip скачать торрент (torrent)

Ответить на тему
 
Автор Сообщение

admin ®

Пол: Не указан

Стаж: 2 года 6 месяцев

Сообщений: 791

Создавать темы 13-Ноя-2016 21:31

[Цитировать]

- Полонейчик Иван Иванович | Эффективные психотехники (2008) DVDRip - Автор (режиссер): Полонейчик Иван Иванович
Производство: "Центр интеллектуальных технологий Ивана Полонейчика", "Слагаемые успеха", Белоруссия
Жанр: Психология
Описание:
Простые Секреты, не требующие много времени и дающие поразительный результат! Как на самом деле Достичь Успеха? Как при минимальных затратах времени решить массу своих проблем, сэкономив кучу денег и нервов? Фильм, прежде всего, нацелен на быстрое получение результата и эффективное решение проблем, которые, так или иначе, возникают в жизни каждого человека.

Автор

Полонейчик Иван Иванович, автор 10 книг по творческому развитию личности и член Белорусской Ассоциации Психотерапевтов. Окончил Белорусский Государственный университет по специальности "ядерная физика" и аспирантуру при кафедре ядерной физики Белгосуниверситета по специальности "экспериментальная физика". Вопросами развития памяти и интеллекта я начал интересоваться еще в аспирантские времена. Решения посвятить себя целиком этой теме созрело в 2002 году, когда по моей инициативе в Минске состоялся семинар известного запоминателя Самвела Гарибяна, во время которого я убедился, что могу преподавать, по крайней мере, не хуже. Закончил физический факультет Белгосуниверситета, аспирантуру при кафедре ядерной физики. Автор пяти изобретений, множества статей. Издал 17 книг по вопросам творчества и интеллектуального развития. Прекрасный преподаватель. Ни один человек не сказал еще, что занятия у Ивана Ивановича ему не понравились.

Основное описание

Вы получите ответ на вопросы:
- Как достигать успеха в своих делах?
- Как раскрыть свои способности?
- Как быстро решать все свои проблемы?
- Как при минимальных затратах времени решить массу своих проблем, сэкономив кучу денег и нервов?
Подсознание - ваш верный, но дремлющий помощник...
Подсознание представляет собой огромный резервуар информации. Человек на самом деле ничего не забывает, он вытесняет в глубины подсознания до 95% информации, которая попадает в его область восприятия.
Подчеркнем: полезной и нужной информации.
Часто приходится решать разные проблемы, но уверенности в верности решений нет. Сознание допускает уговорить себя с помощью самых невероятных логических конструкций и заключений. Иногда это приводит к достаточно негативным последствиям.
Что выбрать?:
- Стоит ли применять новую диету?
- Какое из двух лекарств лучше подействует на организм?
- Каким видом спорта заняться?
- В каком виде деятельности ждет успех, а в каком будут только проблемы?
- Какой вариант ответа выбрать на экзамене?
- Какую выбрать работу из двух вариантов?
- И даже какого выбрать партнера из 2-х претендентов?
Верный ответ на эти вопросы с большой степенью вероятностью может дать подсознание.

12 главных выгод

1. Получение информации от подсознания.
2. Побеждаем стрессы, недосып, усталость.
3. Убираем негативные мысли и рассуждения. Простая и изящная техника прекращения этого самого негатива.
4. Отвечаем за свои слова.
5. Затачиваем свое сознание.
6. Нет негативу. Человек - это набор программ. Программа трудиться, программа завести семью, программа отдыхать, программа жить хорошо, в конце концов. Скажем "да" - позитивным, "нет" - негативным программам.
7. Созидательная визуализация. Если вы четко представляете цель, то вы ее достигнете.
8. Наслаждаемся сном.
9. Преодоление лени.
10. Форсаж Мозга. Предлагаемая игра позволяет вам в кратчайший срок выйти на пик вашей интеллектуальной производительности.
11. Победа над болью. Примечание. Снятие зубной (например) боли не означает отмену визита к стоматологу. Снимается только болевой синдром.
12. Долой страх. Применяете эту технику и получаете достаточную долю уверенности, уже не испытываете того самого парализующего страха перед экзаменами, важными переговорами и т.п. Более того, производите впечатление спокойного и уверенного в себе человека. Хотя почему только производите впечатление? Вы станете спокойным и уверенным.

Главные достоинства этого курса

- Высокая эффективность данного Видеокурса
- Не требуется длительного периода времени для подготовки и освоения конкретных техник.
- Позволяет достичь уверенности в себе и в своих делах, снимает проблемы общения.
- Повышение личной самооценки, расширение зоны комфорта.
- Достижение личного успеха становится реальностью.
- Избавление от множества проблем, связанных с психическим и физическим здоровьем.
- Вы спокойно сможете общаться с представителями противоположного пола, позабыв все страхи, если они у Вас были.
- Не требуется специальная подготовка или предварительное обучение.
- Быстрый результат, в сочетании с высокой эффекивностью.
- Предлагаемые техники и методы не противоречат и не вступают в конфликт с христианскими воззрениями и догматами.
- Процесс освоения этих методик превратится для Вас в увлекательнейшее путешествие к своему личному Успеху.
- В обучающих материалах к данному курсу дополнительные бонусы имеют ценность не меньшую, чем сам курс.

Содержание курса

1. Вступительное слово
2. Тест Дэмбо
3. Немного теории
4. СуперОтдых и СуперРасслабление
5. Позитивное перепрограммирование (Аффирмации)
6. Творящее слово
7. Структурирование сознания
8. Созидающая визуализация
9. Сон - инструмент развития
10. Вопрос к подсознанию
11. Борьба с ленью
12. Любовь к себе
13. Форсаж мозга
14. Победа над болью
15. Не бойся
+ 5 бонусов:
1. Медитация "Кристалл Силы"
2. Медитация "Защита"
3. Медитация "Расширение сознания с самостоятельным выходом"
4. Медитация "Расширение сознания с внешним выходом"
5. Медитация "Подготовка к восприятию информации"

Эффективные психотехники. Часть 2

Вторая часть направлена на то, чтобы Вы начали движение на пути постижения собственной гениальности.
Видеокурс «Эффективные психотехники. Часть 2» посвящён, если выражаться кратко, такому понятию, как харизма. Я не буду вдаваться в терминологические тонкости, но это и лидерские качества, и сексуальность, и гибкость ума и умение это всё проявить.
В этом Видеокурсе собраны действительно работающие эффективные методики и техники, которыми без проблем и с выгодой для себя Вы сможете быстро и гарантировано овладеть
Продолжительность: 06:05:36
Качество видео: DVDRip
Видео: Xvid, 640x480, ~688 kbps
Аудио: MP3, 2 ch, 96 kbps, VBR

Mediainfo:

[code]
"Эффективные психотехники. Часть 1":
Общее
Полное имя : D:\Моя папка\Торренты\Саморазвитие\Эффективные психотехники (Иван Полонейчик)\Эффективные пихотехники. Часть 2\AutoPlay\Videos\10vei.avi
Формат : AVI
Формат/Информация : Audio Video Interleave
Размер файла : 129 Мбайт
Продолжительность : 12 м.
Общий поток : 1406 Кбит/сек
Программа кодирования : Lavf50.6.0
Видео
Идентификатор : 0
Формат : MPEG-4 Visual
Идентификатор кодека : DIV3
Идентификатор кодека/Подсказка : DivX 3 Low
Продолжительность : 12 м.
Битрейт : 1201 Кбит/сек
Ширина : 720 пикселей
Высота : 576 пикселей
Соотношение сторон : 5:4
Частота кадров : 25,000 кадров/сек
Стандарт вещания : PAL
Цветовое пространство : YUV
Субдискретизация насыщенности : 4:2:0
Битовая глубина : 8 бит
Метод сжатия : С потерями
Бит/(Пиксели*Кадры) : 0.116
Размер потока : 110 Мбайт (85%)
Аудио
Идентификатор : 1
Формат : MPEG Audio
Версия формата : Version 1
Профиль формата : Layer 3
Режим : Joint stereo
Идентификатор кодека : 55
Идентификатор кодека/Подсказка : MP3
Продолжительность : 12 м.
Вид битрейта : Постоянный
Битрейт : 192 Кбит/сек
Каналы : 2 канала
Частота : 44,1 КГц
Метод сжатия : С потерями
Размер потока : 17,6 Мбайт (14%)
Выравнивание : Соединение по промежуткам
Продолжительность промежутка : 26 мс. (0,65 видеокадр)
Общее
Полное имя : D:\Моя папка\Торренты\Саморазвитие\Эффективные психотехники (Иван Полонейчик)\Эффективные пихотехники. Часть 2\AutoPlay\Videos\11ili.avi
Формат : AVI
Формат/Информация : Audio Video Interleave
Размер файла : 105 Мбайт
Продолжительность : 10 м.
Общий поток : 1407 Кбит/сек
Программа кодирования : Lavf50.6.0
Видео
Идентификатор : 0
Формат : MPEG-4 Visual
Идентификатор кодека : DIV3
Идентификатор кодека/Подсказка : DivX 3 Low
Продолжительность : 10 м.
Битрейт : 1202 Кбит/сек
Ширина : 720 пикселей
Высота : 576 пикселей
Соотношение сторон : 5:4
Частота кадров : 25,000 кадров/сек
Стандарт вещания : PAL
Цветовое пространство : YUV
Субдискретизация насыщенности : 4:2:0
Битовая глубина : 8 бит
Метод сжатия : С потерями
Бит/(Пиксели*Кадры) : 0.116
Размер потока : 89,9 Мбайт (85%)
Аудио
Идентификатор : 1
Формат : MPEG Audio
Версия формата : Version 1
Профиль формата : Layer 3
Режим : Joint stereo
Идентификатор кодека : 55
Идентификатор кодека/Подсказка : MP3
Продолжительность : 10 м.
Вид битрейта : Постоянный
Битрейт : 192 Кбит/сек
Каналы : 2 канала
Частота : 44,1 КГц
Метод сжатия : С потерями
Размер потока : 14,4 Мбайт (14%)
Выравнивание : Соединение по промежуткам
Продолжительность промежутка : 26 мс. (0,65 видеокадр)
Общее
Полное имя : D:\Моя папка\Торренты\Саморазвитие\Эффективные психотехники (Иван Полонейчик)\Эффективные пихотехники. Часть 2\AutoPlay\Videos\12pifagor.avi
Формат : AVI
Формат/Информация : Audio Video Interleave
Размер файла : 231 Мбайт
Продолжительность : 22 м.
Общий поток : 1405 Кбит/сек
Программа кодирования : Lavf50.6.0
Видео
Идентификатор : 0
Формат : MPEG-4 Visual
Идентификатор кодека : DIV3
Идентификатор кодека/Подсказка : DivX 3 Low
Продолжительность : 22 м.
Битрейт : 1200 Кбит/сек
Ширина : 720 пикселей
Высота : 576 пикселей
Соотношение сторон : 5:4
Частота кадров : 25,000 кадров/сек
Стандарт вещания : PAL
Цветовое пространство : YUV
Субдискретизация насыщенности : 4:2:0
Битовая глубина : 8 бит
Метод сжатия : С потерями
Бит/(Пиксели*Кадры) : 0.116
Размер потока : 197 Мбайт (85%)
Аудио
Идентификатор : 1
Формат : MPEG Audio
Версия формата : Version 1
Профиль формата : Layer 3
Режим : Joint stereo
Идентификатор кодека : 55
Идентификатор кодека/Подсказка : MP3
Продолжительность : 22 м.
Вид битрейта : Постоянный
Битрейт : 192 Кбит/сек
Каналы : 2 канала
Частота : 44,1 КГц
Метод сжатия : С потерями
Размер потока : 31,5 Мбайт (14%)
Выравнивание : Соединение по промежуткам
Продолжительность промежутка : 26 мс. (0,65 видеокадр)
Библиотека кодирования : LAMEЄЄ
Общее
Полное имя : D:\Моя папка\Торренты\Саморазвитие\Эффективные психотехники (Иван Полонейчик)\Эффективные пихотехники. Часть 2\AutoPlay\Videos\13konez.avi
Формат : AVI
Формат/Информация : Audio Video Interleave
Размер файла : 31,2 Мбайт
Продолжительность : 3 м. 5 с.
Общий поток : 1410 Кбит/сек
Программа кодирования : Lavf50.6.0
Видео
Идентификатор : 0
Формат : MPEG-4 Visual
Идентификатор кодека : DIV3
Идентификатор кодека/Подсказка : DivX 3 Low
Продолжительность : 3 м. 5 с.
Битрейт : 1205 Кбит/сек
Ширина : 720 пикселей
Высота : 576 пикселей
Соотношение сторон : 5:4
Частота кадров : 25,000 кадров/сек
Стандарт вещания : PAL
Цветовое пространство : YUV
Субдискретизация насыщенности : 4:2:0
Битовая глубина : 8 бит
Метод сжатия : С потерями
Бит/(Пиксели*Кадры) : 0.116
Размер потока : 26,6 Мбайт (85%)
Аудио
Идентификатор : 1
Формат : MPEG Audio
Версия формата : Version 1
Профиль формата : Layer 3
Режим : Joint stereo
Идентификатор кодека : 55
Идентификатор кодека/Подсказка : MP3
Продолжительность : 3 м. 5 с.
Вид битрейта : Постоянный
Битрейт : 192 Кбит/сек
Каналы : 2 канала
Частота : 44,1 КГц
Метод сжатия : С потерями
Размер потока : 4,24 Мбайт (14%)
Выравнивание : Соединение по промежуткам
Продолжительность промежутка : 26 мс. (0,65 видеокадр)
Общее
Полное имя : D:\Моя папка\Торренты\Саморазвитие\Эффективные психотехники (Иван Полонейчик)\Эффективные пихотехники. Часть 2\AutoPlay\Videos\1vstupl.avi
Формат : AVI
Формат/Информация : Audio Video Interleave
Размер файла : 106 Мбайт
Продолжительность : 10 м.
Общий поток : 1405 Кбит/сек
Программа кодирования : Lavf50.6.0
Видео
Идентификатор : 0
Формат : MPEG-4 Visual
Идентификатор кодека : DIV3
Идентификатор кодека/Подсказка : DivX 3 Low
Продолжительность : 10 м.
Битрейт : 1200 Кбит/сек
Ширина : 720 пикселей
Высота : 576 пикселей
Соотношение сторон : 5:4
Частота кадров : 25,000 кадров/сек
Стандарт вещания : PAL
Цветовое пространство : YUV
Субдискретизация насыщенности : 4:2:0
Битовая глубина : 8 бит
Метод сжатия : С потерями
Бит/(Пиксели*Кадры) : 0.116
Размер потока : 91,0 Мбайт (85%)
Аудио
Идентификатор : 1
Формат : MPEG Audio
Версия формата : Version 1
Профиль формата : Layer 3
Режим : Joint stereo
Идентификатор кодека : 55
Идентификатор кодека/Подсказка : MP3
Продолжительность : 10 м.
Вид битрейта : Постоянный
Битрейт : 192 Кбит/сек
Каналы : 2 канала
Частота : 44,1 КГц
Метод сжатия : С потерями
Размер потока : 14,5 Мбайт (14%)
Выравнивание : Соединение по промежуткам
Продолжительность промежутка : 26 мс. (0,65 видеокадр)
Общее
Полное имя : D:\Моя папка\Торренты\Саморазвитие\Эффективные психотехники (Иван Полонейчик)\Эффективные пихотехники. Часть 2\AutoPlay\Videos\2polestra.avi
Формат : AVI
Формат/Информация : Audio Video Interleave
Размер файла : 182 Мбайт
Продолжительность : 18 м.
Общий поток : 1406 Кбит/сек
Программа кодирования : Lavf50.6.0
Видео
Идентификатор : 0
Формат : MPEG-4 Visual
Идентификатор кодека : DIV3
Идентификатор кодека/Подсказка : DivX 3 Low
Продолжительность : 18 м.
Битрейт : 1201 Кбит/сек
Ширина : 720 пикселей
Высота : 576 пикселей
Соотношение сторон : 5:4
Частота кадров : 25,000 кадров/сек
Стандарт вещания : PAL
Цветовое пространство : YUV
Субдискретизация насыщенности : 4:2:0
Битовая глубина : 8 бит
Метод сжатия : С потерями
Бит/(Пиксели*Кадры) : 0.116
Размер потока : 156 Мбайт (85%)
Аудио
Идентификатор : 1
Формат : MPEG Audio
Версия формата : Version 1
Профиль формата : Layer 3
Режим : Joint stereo
Идентификатор кодека : 55
Идентификатор кодека/Подсказка : MP3
Продолжительность : 18 м.
Вид битрейта : Постоянный
Битрейт : 192 Кбит/сек
Каналы : 2 канала
Частота : 44,1 КГц
Метод сжатия : С потерями
Размер потока : 24,9 Мбайт (14%)
Выравнивание : Соединение по промежуткам
Продолжительность промежутка : 26 мс. (0,65 видеокадр)
Общее
Полное имя : D:\Моя папка\Торренты\Саморазвитие\Эффективные психотехники (Иван Полонейчик)\Эффективные пихотехники. Часть 2\AutoPlay\Videos\3Sfera.avi
Формат : AVI
Формат/Информация : Audio Video Interleave
Размер файла : 41,8 Мбайт
Продолжительность : 4 м. 9 с.
Общий поток : 1408 Кбит/сек
Программа кодирования : Lavf50.6.0
Видео
Идентификатор : 0
Формат : MPEG-4 Visual
Идентификатор кодека : DIV3
Идентификатор кодека/Подсказка : DivX 3 Low
Продолжительность : 4 м. 9 с.
Битрейт : 1204 Кбит/сек
Ширина : 720 пикселей
Высота : 576 пикселей
Соотношение сторон : 5:4
Частота кадров : 25,000 кадров/сек
Стандарт вещания : PAL
Цветовое пространство : YUV
Субдискретизация насыщенности : 4:2:0
Битовая глубина : 8 бит
Метод сжатия : С потерями
Бит/(Пиксели*Кадры) : 0.116
Размер потока : 35,7 Мбайт (85%)
Аудио
Идентификатор : 1
Формат : MPEG Audio
Версия формата : Version 1
Профиль формата : Layer 3
Режим : Joint stereo
Идентификатор кодека : 55
Идентификатор кодека/Подсказка : MP3
Продолжительность : 4 м. 8 с.
Вид битрейта : Постоянный
Битрейт : 192 Кбит/сек
Каналы : 2 канала
Частота : 44,1 КГц
Метод сжатия : С потерями
Размер потока : 5,70 Мбайт (14%)
Выравнивание : Соединение по промежуткам
Продолжительность промежутка : 26 мс. (0,65 видеокадр)
Общее
Полное имя : D:\Моя папка\Торренты\Саморазвитие\Эффективные психотехники (Иван Полонейчик)\Эффективные пихотехники. Часть 2\AutoPlay\Videos\4zelj.avi
Формат : AVI
Формат/Информация : Audio Video Interleave
Размер файла : 56,6 Мбайт
Продолжительность : 5 м. 37 с.
Общий поток : 1407 Кбит/сек
Программа кодирования : Lavf50.6.0
Видео
Идентификатор : 0
Формат : MPEG-4 Visual
Идентификатор кодека : DIV3
Идентификатор кодека/Подсказка : DivX 3 Low
Продолжительность : 5 м. 37 с.
Битрейт : 1203 Кбит/сек
Ширина : 720 пикселей
Высота : 576 пикселей
Соотношение сторон : 5:4
Частота кадров : 25,000 кадров/сек
Стандарт вещания : PAL
Цветовое пространство : YUV
Субдискретизация насыщенности : 4:2:0
Битовая глубина : 8 бит
Метод сжатия : С потерями
Бит/(Пиксели*Кадры) : 0.116
Размер потока : 48,3 Мбайт (85%)
Аудио
Идентификатор : 1
Формат : MPEG Audio
Версия формата : Version 1
Профиль формата : Layer 3
Режим : Joint stereo
Идентификатор кодека : 55
Идентификатор кодека/Подсказка : MP3
Продолжительность : 5 м. 37 с.
Вид битрейта : Постоянный
Битрейт : 192 Кбит/сек
Каналы : 2 канала
Частота : 44,1 КГц
Метод сжатия : С потерями
Размер потока : 7,72 Мбайт (14%)
Выравнивание : Соединение по промежуткам
Продолжительность промежутка : 26 мс. (0,65 видеокадр)
Общее
Полное имя : D:\Моя папка\Торренты\Саморазвитие\Эффективные психотехники (Иван Полонейчик)\Эффективные пихотехники. Часть 2\AutoPlay\Videos\5alfavit.avi
Формат : AVI
Формат/Информация : Audio Video Interleave
Размер файла : 32,5 Мбайт
Продолжительность : 3 м. 14 с.
Общий поток : 1402 Кбит/сек
Программа кодирования : Lavf50.6.0
Видео
Идентификатор : 0
Формат : MPEG-4 Visual
Идентификатор кодека : DIV3
Идентификатор кодека/Подсказка : DivX 3 Low
Продолжительность : 3 м. 14 с.
Битрейт : 1197 Кбит/сек
Ширина : 720 пикселей
Высота : 576 пикселей
Соотношение сторон : 5:4
Частота кадров : 25,000 кадров/сек
Стандарт вещания : PAL
Цветовое пространство : YUV
Субдискретизация насыщенности : 4:2:0
Битовая глубина : 8 бит
Метод сжатия : С потерями
Бит/(Пиксели*Кадры) : 0.115
Размер потока : 27,7 Мбайт (85%)
Аудио
Идентификатор : 1
Формат : MPEG Audio
Версия формата : Version 1
Профиль формата : Layer 3
Режим : Joint stereo
Идентификатор кодека : 55
Идентификатор кодека/Подсказка : MP3
Продолжительность : 3 м. 14 с.
Вид битрейта : Постоянный
Битрейт : 192 Кбит/сек
Каналы : 2 канала
Частота : 44,1 КГц
Метод сжатия : С потерями
Размер потока : 4,45 Мбайт (14%)
Выравнивание : Соединение по промежуткам
Продолжительность промежутка : 26 мс. (0,65 видеокадр)
Общее
Полное имя : D:\Моя папка\Торренты\Саморазвитие\Эффективные психотехники (Иван Полонейчик)\Эффективные пихотехники. Часть 2\AutoPlay\Videos\6supermozg.avi
Формат : AVI
Формат/Информация : Audio Video Interleave
Размер файла : 87,1 Мбайт
Продолжительность : 8 м. 40 с.
Общий поток : 1404 Кбит/сек
Программа кодирования : Lavf50.6.0
Видео
Идентификатор : 0
Формат : MPEG-4 Visual
Идентификатор кодека : DIV3
Идентификатор кодека/Подсказка : DivX 3 Low
Продолжительность : 8 м. 40 с.
Битрейт : 1199 Кбит/сек
Ширина : 720 пикселей
Высота : 576 пикселей
Соотношение сторон : 5:4
Частота кадров : 25,000 кадров/сек
Стандарт вещания : PAL
Цветовое пространство : YUV
Субдискретизация насыщенности : 4:2:0
Битовая глубина : 8 бит
Метод сжатия : С потерями
Бит/(Пиксели*Кадры) : 0.116
Размер потока : 74,4 Мбайт (85%)
Аудио
Идентификатор : 1
Формат : MPEG Audio
Версия формата : Version 1
Профиль формата : Layer 3
Режим : Joint stereo
Идентификатор кодека : 55
Идентификатор кодека/Подсказка : MP3
Продолжительность : 8 м. 40 с.
Вид битрейта : Постоянный
Битрейт : 192 Кбит/сек
Каналы : 2 канала
Частота : 44,1 КГц
Метод сжатия : С потерями
Размер потока : 11,9 Мбайт (14%)
Выравнивание : Соединение по промежуткам
Продолжительность промежутка : 26 мс. (0,65 видеокадр)
Библиотека кодирования : LAMEЄЄ
Общее
Полное имя : D:\Моя папка\Торренты\Саморазвитие\Эффективные психотехники (Иван Полонейчик)\Эффективные пихотехники. Часть 2\AutoPlay\Videos\7sherlok.avi
Формат : AVI
Формат/Информация : Audio Video Interleave
Размер файла : 60,7 Мбайт
Продолжительность : 6 м. 2 с.
Общий поток : 1403 Кбит/сек
Программа кодирования : Lavf50.6.0
Видео
Идентификатор : 0
Формат : MPEG-4 Visual
Идентификатор кодека : DIV3
Идентификатор кодека/Подсказка : DivX 3 Low
Продолжительность : 6 м. 2 с.
Битрейт : 1199 Кбит/сек
Ширина : 720 пикселей
Высота : 576 пикселей
Соотношение сторон : 5:4
Частота кадров : 25,000 кадров/сек
Стандарт вещания : PAL
Цветовое пространство : YUV
Субдискретизация насыщенности : 4:2:0
Битовая глубина : 8 бит
Метод сжатия : С потерями
Бит/(Пиксели*Кадры) : 0.116
Размер потока : 51,8 Мбайт (85%)
Аудио
Идентификатор : 1
Формат : MPEG Audio
Версия формата : Version 1
Профиль формата : Layer 3
Режим : Joint stereo
Идентификатор кодека : 55
Идентификатор кодека/Подсказка : MP3
Продолжительность : 6 м. 2 с.
Вид битрейта : Постоянный
Битрейт : 192 Кбит/сек
Каналы : 2 канала
Частота : 44,1 КГц
Метод сжатия : С потерями
Размер потока : 8,30 Мбайт (14%)
Выравнивание : Соединение по промежуткам
Продолжительность промежутка : 26 мс. (0,65 видеокадр)
Общее
Полное имя : D:\Моя папка\Торренты\Саморазвитие\Эффективные психотехники (Иван Полонейчик)\Эффективные пихотехники. Часть 2\AutoPlay\Videos\8trifff.avi
Формат : AVI
Формат/Информация : Audio Video Interleave
Размер файла : 65,4 Мбайт
Продолжительность : 6 м. 29 с.
Общий поток : 1407 Кбит/сек
Программа кодирования : Lavf50.6.0
Видео
Идентификатор : 0
Формат : MPEG-4 Visual
Идентификатор кодека : DIV3
Идентификатор кодека/Подсказка : DivX 3 Low
Продолжительность : 6 м. 29 с.
Битрейт : 1202 Кбит/сек
Ширина : 720 пикселей
Высота : 576 пикселей
Соотношение сторон : 5:4
Частота кадров : 25,000 кадров/сек
Стандарт вещания : PAL
Цветовое пространство : YUV
Субдискретизация насыщенности : 4:2:0
Битовая глубина : 8 бит
Метод сжатия : С потерями
Бит/(Пиксели*Кадры) : 0.116
Размер потока : 55,9 Мбайт (85%)
Аудио
Идентификатор : 1
Формат : MPEG Audio
Версия формата : Version 1
Профиль формата : Layer 3
Режим : Joint stereo
Идентификатор кодека : 55
Идентификатор кодека/Подсказка : MP3
Продолжительность : 6 м. 29 с.
Вид битрейта : Постоянный
Битрейт : 192 Кбит/сек
Каналы : 2 канала
Частота : 44,1 КГц
Метод сжатия : С потерями
Размер потока : 8,92 Мбайт (14%)
Выравнивание : Соединение по промежуткам
Продолжительность промежутка : 26 мс. (0,65 видеокадр)
Общее
Полное имя : D:\Моя папка\Торренты\Саморазвитие\Эффективные психотехники (Иван Полонейчик)\Эффективные пихотехники. Часть 2\AutoPlay\Videos\9bodrin.avi
Формат : AVI
Формат/Информация : Audio Video Interleave
Размер файла : 108 Мбайт
Продолжительность : 10 м.
Общий поток : 1406 Кбит/сек
Программа кодирования : Lavf50.6.0
Видео
Идентификатор : 0
Формат : MPEG-4 Visual
Идентификатор кодека : DIV3
Идентификатор кодека/Подсказка : DivX 3 Low
Продолжительность : 10 м.
Битрейт : 1201 Кбит/сек
Ширина : 720 пикселей
Высота : 576 пикселей
Соотношение сторон : 5:4
Частота кадров : 25,000 кадров/сек
Стандарт вещания : PAL
Цветовое пространство : YUV
Субдискретизация насыщенности : 4:2:0
Битовая глубина : 8 бит
Метод сжатия : С потерями
Бит/(Пиксели*Кадры) : 0.116
Размер потока : 92,0 Мбайт (85%)
Аудио
Идентификатор : 1
Формат : MPEG Audio
Версия формата : Version 1
Профиль формата : Layer 3
Режим : Joint stereo
Идентификатор кодека : 55
Идентификатор кодека/Подсказка : MP3
Продолжительность : 10 м.
Вид битрейта : Постоянный
Битрейт : 192 Кбит/сек
Каналы : 2 канала
Частота : 44,1 КГц
Метод сжатия : С потерями
Размер потока : 14,7 Мбайт (14%)
Выравнивание : Соединение по промежуткам
Продолжительность промежутка : 26 мс. (0,65 видеокадр)
"Эффективные психотехники. Часть 2":
Общее
Полное имя : D:\Моя папка\Торренты\Саморазвитие\Эффективные психотехники (Иван Полонейчик)\Эффективные психотехники. Часть 1\AutoPlay\Videos\1-vstuplenie.avi
Формат : AVI
Формат/Информация : Audio Video Interleave
Размер файла : 33,7 Мбайт
Продолжительность : 5 м. 55 с.
Общий поток : 794 Кбит/сек
Видео
Идентификатор : 0
Формат : MPEG-4 Visual
Профиль формата : Advanced Simple@L1
Параметр BVOP формата : 1
Параметр QPel формата : Нет
Параметр GMC формата : Без точки перехода
Параметр матрицы формата : Default (H.263)
Идентификатор кодека : XVID
Идентификатор кодека/Подсказка : XviD
Продолжительность : 5 м. 55 с.
Битрейт : 688 Кбит/сек
Ширина : 640 пикселей
Высота : 480 пикселей
Соотношение сторон : 4:3
Частота кадров : 25,000 кадров/сек
Цветовое пространство : YUV
Субдискретизация насыщенности : 4:2:0
Битовая глубина : 8 бит
Тип развёртки : Прогрессивная
Метод сжатия : С потерями
Бит/(Пиксели*Кадры) : 0.090
Размер потока : 29,2 Мбайт (87%)
Библиотека кодирования : Lavc51.9.0
Аудио
Идентификатор : 1
Формат : MPEG Audio
Версия формата : Version 1
Профиль формата : Layer 3
Режим : Joint stereo
Расширение режима : MS Stereo
Идентификатор кодека : 55
Идентификатор кодека/Подсказка : MP3
Продолжительность : 5 м. 55 с.
Вид битрейта : Постоянный
Битрейт : 96,0 Кбит/сек
Каналы : 2 канала
Частота : 32,0 КГц
Метод сжатия : С потерями
Задержка видео : 30 мс.
Размер потока : 4,07 Мбайт (12%)
Выравнивание : Разделение по промежуткам
Продолжительность промежутка : 250 мс. (6,25 видеокадров)
Время предзагрузки промежутка : 250 мс.
Общее
Полное имя : D:\Моя папка\Торренты\Саморазвитие\Эффективные психотехники (Иван Полонейчик)\Эффективные психотехники. Часть 1\AutoPlay\Videos\10-vopros.avi
Формат : AVI
Формат/Информация : Audio Video Interleave
Размер файла : 74,8 Мбайт
Продолжительность : 13 м.
Общий поток : 783 Кбит/сек
Видео
Идентификатор : 0
Формат : MPEG-4 Visual
Профиль формата : Advanced Simple@L1
Параметр BVOP формата : 1
Параметр QPel формата : Нет
Параметр GMC формата : Без точки перехода
Параметр матрицы формата : Default (H.263)
Идентификатор кодека : XVID
Идентификатор кодека/Подсказка : XviD
Продолжительность : 13 м.
Битрейт : 678 Кбит/сек
Ширина : 640 пикселей
Высота : 480 пикселей
Соотношение сторон : 4:3
Частота кадров : 25,000 кадров/сек
Цветовое пространство : YUV
Субдискретизация насыщенности : 4:2:0
Битовая глубина : 8 бит
Тип развёртки : Прогрессивная
Метод сжатия : С потерями
Бит/(Пиксели*Кадры) : 0.088
Размер потока : 64,8 Мбайт (87%)
Библиотека кодирования : Lavc51.9.0
Аудио
Идентификатор : 1
Формат : MPEG Audio
Версия формата : Version 1
Профиль формата : Layer 3
Режим : Joint stereo
Расширение режима : MS Stereo
Идентификатор кодека : 55
Идентификатор кодека/Подсказка : MP3
Продолжительность : 13 м.
Вид битрейта : Постоянный
Битрейт : 96,0 Кбит/сек
Каналы : 2 канала
Частота : 32,0 КГц
Метод сжатия : С потерями
Задержка видео : 33 мс.
Размер потока : 9,18 Мбайт (12%)
Выравнивание : Разделение по промежуткам
Продолжительность промежутка : 250 мс. (6,25 видеокадров)
Время предзагрузки промежутка : 250 мс.
Общее
Полное имя : D:\Моя папка\Торренты\Саморазвитие\Эффективные психотехники (Иван Полонейчик)\Эффективные психотехники. Часть 1\AutoPlay\Videos\11-leni.avi
Формат : AVI
Формат/Информация : Audio Video Interleave
Размер файла : 64,0 Мбайт
Продолжительность : 11 м.
Общий поток : 784 Кбит/сек
Видео
Идентификатор : 0
Формат : MPEG-4 Visual
Профиль формата : Advanced Simple@L1
Параметр BVOP формата : 1
Параметр QPel формата : Нет
Параметр GMC формата : Без точки перехода
Параметр матрицы формата : Default (H.263)
Идентификатор кодека : XVID
Идентификатор кодека/Подсказка : XviD
Продолжительность : 11 м.
Битрейт : 679 Кбит/сек
Ширина : 640 пикселей
Высота : 480 пикселей
Соотношение сторон : 4:3
Частота кадров : 25,000 кадров/сек
Цветовое пространство : YUV
Субдискретизация насыщенности : 4:2:0
Битовая глубина : 8 бит
Тип развёртки : Прогрессивная
Метод сжатия : С потерями
Бит/(Пиксели*Кадры) : 0.088
Размер потока : 55,5 Мбайт (87%)
Библиотека кодирования : Lavc51.9.0
Аудио
Идентификатор : 1
Формат : MPEG Audio
Версия формата : Version 1
Профиль формата : Layer 3
Режим : Joint stereo
Расширение режима : MS Stereo
Идентификатор кодека : 55
Идентификатор кодека/Подсказка : MP3
Продолжительность : 11 м.
Вид битрейта : Постоянный
Битрейт : 96,0 Кбит/сек
Каналы : 2 канала
Частота : 32,0 КГц
Метод сжатия : С потерями
Задержка видео : 29 мс.
Размер потока : 7,84 Мбайт (12%)
Выравнивание : Разделение по промежуткам
Продолжительность промежутка : 250 мс. (6,25 видеокадров)
Время предзагрузки промежутка : 250 мс.
Общее
Полное имя : D:\Моя папка\Торренты\Саморазвитие\Эффективные психотехники (Иван Полонейчик)\Эффективные психотехники. Часть 1\AutoPlay\Videos\12-lubov.avi
Формат : AVI
Формат/Информация : Audio Video Interleave
Размер файла : 100 Мбайт
Продолжительность : 17 м.
Общий поток : 784 Кбит/сек
Видео
Идентификатор : 0
Формат : MPEG-4 Visual
Профиль формата : Advanced Simple@L1
Параметр BVOP формата : 1
Параметр QPel формата : Нет
Параметр GMC формата : Без точки перехода
Параметр матрицы формата : Default (H.263)
Идентификатор кодека : XVID
Идентификатор кодека/Подсказка : XviD
Продолжительность : 17 м.
Битрейт : 680 Кбит/сек
Ширина : 640 пикселей
Высота : 480 пикселей
Соотношение сторон : 4:3
Частота кадров : 25,000 кадров/сек
Цветовое пространство : YUV
Субдискретизация насыщенности : 4:2:0
Битовая глубина : 8 бит
Тип развёртки : Прогрессивная
Метод сжатия : С потерями
Бит/(Пиксели*Кадры) : 0.088
Размер потока : 86,8 Мбайт (87%)
Библиотека кодирования : Lavc51.9.0
Аудио
Идентификатор : 1
Формат : MPEG Audio
Версия формата : Version 1
Профиль формата
Скачать .torrent

Для того, чтобы скачать торрент-файл

Полонейчик Иван Иванович | Эффективные психотехники (2008) DVDRip

с нашего сайта, Вам необходимо Войти на сайт под своим логином! Если у Вас ещё нет логина, тогда Вам нужно сначала Зарегистрироваться!

Как скачивать? · Что такое торрент? · Правила, FAQ'и, инструкции

     Добавлен      Похожие темы Размер     S  |  L     Торрент
02-Сен-17 10:24 Борис Акимов - Медитация. Самовнушение. Аутотренинг. Самые эффективные психотехники (2014) Отв. 0 1013 KB
108 | 24
Скачать .torrent
02-Сен-17 10:23 Иван Бенгальский - Большой и малый ключи Соломона. Практическое руководство по магии (2016) Отв. 0 10 MB
41 | 0
Скачать .torrent
02-Сен-17 08:51 Г.В. Носовский, А.Т. Фоменко - «Число Зверя». Когда был написан Апокалипсис (2008) Отв. 0 11 MB
20 | 16
Скачать .torrent
02-Сен-17 08:28 Вера Приселкова - Неудачное замужество. Подлинная история одного печального опыта (2008) Отв. 0 64 MB
10 | 0
Скачать .torrent
02-Сен-17 08:26 Г.А. Сидоров - Хронолого-эзотерический анализ развития современной цивилизации [6 книг] (2009 - 2017) + Дополнение [4 книги] (2008-2015) Отв. 0 41 MB
50 | 0
Скачать .torrent
[Профиль] [ЛС]
Показать сообщения:    
Ответить на тему

Полонейчик Иван Иванович | Эффективные психотехники (2008) DVDRip скачать торрент (torrent)

Текущее время: 22-Сен 09:59

Часовой пояс: UTC ± 0



Вы не можете начинать темы
Вы не можете отвечать на сообщения
Вы не можете редактировать свои сообщения
Вы не можете удалять свои сообщения
Вы не можете голосовать в опросах
Вы не можете прикреплять файлы к сообщениям
Вы не можете скачивать файлы