Сергей Змеев | Хозяин Судьбы 3.0 (2011) CamRip [H.264] скачать торрент (torrent)

Ответить на тему
 
Автор Сообщение

admin ®

Пол: Не указан

Стаж: 1 год 11 месяцев

Сообщений: 459

Создавать темы 13-Ноя-2016 21:31

[Цитировать]

- Сергей Змеев | Хозяин Судьбы 3.0 (2011) CamRip [H.264] - Автор (режиссер): Сергей Змеев
Жанр: Практическая психология, Личностный рост
Описание:
Вспомните,
Как часто Вы ставили цель, но не достигали ее?
Как в Вашей голове рождались гениальные идеи и не реализовывались?
Как Ваша мечта, к которой Вы так стремились, удалялась от Вас всё дальше и дальше?
Как эти вопросы и ответы на них уносились шумом ветра и суетой очередного дня…
Как часто Вы вновь и вновь возвращались к основополагающим вопросам:
Кто Я? В чем смысл моей жизни?
Чего Я по-настоящему хочу?
И как этого достичь?
Как и Вы, мы прошли эти ситуации, и теперь можем сказать со 100% уверенностью:
Волшебных таблеток и палочек НЕ СУЩЕСТВУЕТ! Ждать Чуда бесполезно … если конечно Вы не волшебник.
НО! Стать Волшебником МОЖНО!
Стать Хозяином Своей Судьбы!
Продолжительность: 22:59:37
Качество видео: CamRip
Видео: AVC/H.264, 320х240-640x480, ~598 Kbps
Аудио: AAC, 2 ch, 121 Kbps, VBR

Mediainfo:

General
Complete name                            : C:\Torrents\Змеев Сергей - Хозяин Судьбы 3.0 (2011)\Stupen_1\modul_01.mp4
Format                                   : MPEG-4
Format profile                           : Base Media
Codec ID                                 : isom
File size                                : 204 MiB
Duration                                 : 39mn 28s
Overall bit rate mode                    : Variable
Overall bit rate                         : 722 Kbps
Encoded date                             : UTC 2010-11-14 10:22:08
Tagged date                              : UTC 2010-11-15 10:22:14
Video
ID                                       : 1
Format                                   : AVC
Format/Info                              : Advanced Video Codec
Format profile                           : [url=mailto:High@L3.1]High@L3.1[/url]
Format settings, CABAC                   : Yes
Format settings, ReFrames                : 4 frames
Codec ID                                 : avc1
Codec ID/Info                            : Advanced Video Coding
Duration                                 : 39mn 28s
Bit rate                                 : 598 Kbps
Maximum bit rate                         : 962 Kbps
Width                                    : 640 pixels
Height                                   : 480 pixels
Display aspect ratio                     : 4:3
Frame rate mode                          : Constant
Frame rate                               : 25.000 fps
Color space                              : YUV
Chroma subsampling                       : 4:2:0
Bit depth                                : 8 bits
Scan type                                : Progressive
Bits/(Pixel*Frame)                       : 0.078
Stream size                              : 169 MiB (83%)
Writing library                          : Vimeo Encoder
Encoded date                             : UTC 2010-11-14 10:22:08
Tagged date                              : UTC 2010-11-14 10:22:12
Audio
ID                                       : 2
Format                                   : AAC
Format/Info                              : Advanced Audio Codec
Format profile                           : LC
Codec ID                                 : 40
Duration                                 : 39mn 27s
Bit rate mode                            : Variable
Bit rate                                 : 121 Kbps
Maximum bit rate                         : 150 Kbps
Channel(s)                               : 2 channels
Channel positions                        : Front: L R
Sampling rate                            : 44.1 KHz
Compression mode                         : Lossy
Stream size                              : 34.3 MiB (17%)
Encoded date                             : UTC 2010-11-14 10:22:11
Tagged date                              : UTC 2010-11-14 10:22:12
Скриншоты:
Время раздачи: с 20:00 до 23:00 (до появления первых 3-5 скачавших)
Скачать .torrent

Для того, чтобы скачать торрент-файл

Сергей Змеев | Хозяин Судьбы 3.0 (2011) CamRip [H.264]

с нашего сайта, Вам необходимо Войти на сайт под своим логином! Если у Вас ещё нет логина, тогда Вам нужно сначала Зарегистрироваться!

Как скачивать? · Что такое торрент? · Правила, FAQ'и, инструкции

     Добавлен      Похожие темы Размер     S  |  L     Торрент
21-Ноя-16 23:54 Орлов, Панкратов - Школа менеджеров Стартоплан (2011) Отв. 0 3,86 GB
2 | 0
Скачать .torrent
13-Ноя-16 21:34 Радислав Гандапас | Естественный отбор: эволюция лидера (2014) CamRip [H.264] Отв. 0 800 MB
18 | 0
Скачать .torrent
13-Ноя-16 21:33 Фрэнк Пьюселик | Модели человеческой мотивации (2011) DVDRip Отв. 0 2,32 GB
2 | 0
Скачать .torrent
13-Ноя-16 21:33 Константин Дуплищев | Курс Телесно-ориентированная психотерапия (2010) CamRip Отв. 0 23,81 GB
6 | 0
Скачать .torrent
13-Ноя-16 21:32 Сергей Змеев | Мастер Влияния - Месяц 2 (2012) DVDRip [H.264] Отв. 0 3,5 GB
3 | 0
Скачать .torrent
[Профиль] [ЛС]
Показать сообщения:    
Ответить на тему

Сергей Змеев | Хозяин Судьбы 3.0 (2011) CamRip [H.264] скачать торрент (torrent)

Текущее время: 26-Фев 00:56

Часовой пояс: UTC ± 0



Вы не можете начинать темы
Вы не можете отвечать на сообщения
Вы не можете редактировать свои сообщения
Вы не можете удалять свои сообщения
Вы не можете голосовать в опросах
Вы не можете прикреплять файлы к сообщениям
Вы не можете скачивать файлы