Константин Дуплищев | Курс Телесно-ориентированная психотерапия (2010) CamRip скачать торрент (torrent)

Ответить на тему
 
Автор Сообщение

admin ®

Пол: Не указан

Стаж: 1 год 11 месяцев

Сообщений: 459

Создавать темы 13-Ноя-2016 21:33

[Цитировать]

- Константин Дуплищев | Курс Телесно-ориентированная психотерапия (2010) CamRip - Автор (режиссер): Константин Дуплищев
Производство: Россия
Жанр: Психотерапия
Продолжительность: 36.00.17
Качество видео: CamRip
Язык: Русский
Описание:
Описание: Телесно-ориентированная психотерапия (ТОП) — это современное направление психотерапии, в основе которого — принцип развития человека через работу с телом. Наше тело помнит всё: наши чувства, переживания, важные события, причем с самого момента появления тела. Поэтому работая с телом, мы имеем доступ к глубинным уровням бессознательного, что позволяет эффективно решить многие проблемы, как телесные, так и психологические. На сегодняшний день ТОП завоевала очень широкую популярность среди психотерапевтов и психологов.
Тренер курса: Дуплищев Константин Николаевич, врач-психотерапевт, педагог-психолог, психотерапевт Единого реестра Европы, психотерапевт клиники «Инсайт» (г.Новосибирск), межрегиональный тренер и супервизор ОППЛ (Общероссийской Профессиональной Психотерапевтической Лиги), сертифицированный специалист в области телесно-ориентированной терапии, НЛП, холотропного дыхания, тренер с огромным опытом работы.
Курс состоит из 7 2-дневных семинаров:
Семинар №1:
Тема 1.Введение в телесно-ориентированную психотерапию (ТОП). Образ и структура тела. Границы и опоры. Основные методы работы. Основные принципы работы с клиентом в ТОП, первичная диагностика и стратегия работы.
Семинар № 2:
Тема 2.Соматическая вегетотерапия Вильгельма Райха. Основы биосинтеза Дэвида Боаделло.
Семинар № 3:
Тема 3.Биоэнергетика Александра Лоуэна. Телесное сознавание и развитие телесной энергетики методом М. Фельденкрайза.
Семинар № 4:
Тема 4.Диагностика в телесно-ориентированной психотерапии. Работа с симптомом в телесно-ориентированной психотерапии. Работа с агрессией. Телесные метафоры.
Семинар № 5:
Тема 5.Работа с последствиями нарушений детско-родительских отношений и травмами развития. ТОП в работе с зависимостями и созависимостями. Работа с границами.
Семинар № 6:
Тема 6.ТОП в работе с психосоматикой. ТОП в работе с травмами и кризисными состояниями. Работа со стыдом, с чувством вины, с горем, с печалью.
Семинар № 7:
Тема 7.Работа с сексуальностью в ТОП. Практикум по работе с клиентами в ТОП. Супервизия, презентация индивидуальных итоговых работ.
Видео: Xvid, 720х544, ~1525
Аудио: MP3, 2 ch, 128, VBR

Mediainfo:

Format                                   : AVI
Format/Info                              : Audio Video Interleave
File size                                : 640 MiB
Duration                                 : 53mn 32s
Overall bit rate mode                    : Variable
Overall bit rate                         : 1 671 Kbps
Writing application                      : VirtualDubMod 1.5.4.1 (build 2178/release)
Writing library                          : VirtualDubMod build 2178/release
Video
ID                                       : 0
Format                                   : MPEG-4 Visual
Format profile                           : Advanced Simple@L5
Format settings, BVOP                    : 1
Format settings, QPel                    : No
Format settings, GMC                     : No warppoints
Format settings, Matrix                  : Custom
Codec ID                                 : XVID
Codec ID/Hint                            : XviD
Duration                                 : 53mn 32s
Bit rate                                 : 1 525 Kbps
Width                                    : 720 pixels
Height                                   : 544 pixels
Display aspect ratio                     : 4:3
Frame rate                               : 25.000 fps
Color space                              : YUV
Chroma subsampling                       : 4:2:0
Bit depth                                : 8 bits
Scan type                                : Progressive
Compression mode                         : Lossy
Bits/(Pixel*Frame)                       : 0.156
Stream size                              : 584 MiB (91%)
Writing library                          : XviD 1.0.3 (UTC 2004-12-20)
Audio
ID                                       : 1
Format                                   : MPEG Audio
Format version                           : Version 1
Format profile                           : Layer 3
Mode                                     : Joint stereo
Mode extension                           : MS Stereo
Codec ID                                 : 55
Codec ID/Hint                            : MP3
Duration                                 : 53mn 32s
Bit rate mode                            : Variable
Bit rate                                 : 128 Kbps
Channel(s)                               : 2 channels
Sampling rate                            : 48.0 KHz
Compression mode                         : Lossy
Stream size                              : 50.9 MiB (8%)
Alignment                                : Aligned on interleaves
Interleave, duration                     : 24 ms (0.60 video frame)
Interleave, preload duration             : 493 ms
Writing library                          : LAME3.90.
Encoding settings                        : -m j -V 4 -q 2 -lowpass 17.6 --abr 128
Скриншоты:
Время раздачи: 24/7 (до появления первых 3-5 скачавших)
Скачать .torrent

Для того, чтобы скачать торрент-файл

Константин Дуплищев | Курс Телесно-ориентированная психотерапия (2010) CamRip

с нашего сайта, Вам необходимо Войти на сайт под своим логином! Если у Вас ещё нет логина, тогда Вам нужно сначала Зарегистрироваться!

Как скачивать? · Что такое торрент? · Правила, FAQ'и, инструкции

     Добавлен      Похожие темы Размер     S  |  L     Торрент
21-Фев-17 07:57 Петухов - Самогипноз 2.0. Базовый курс (2016) Отв. 0 485 MB
0 | 1
Скачать .torrent
15-Фев-17 09:45 Гак - Классический курс Таро (2016) Отв. 0 6,23 GB
1 | 0
Скачать .torrent
03-Фев-17 10:58 Бэньан - Курс по гипнотерапии 5-Path Hypnosis Training (часть 1) (2016) Отв. 0 1,67 GB
1 | 0
Скачать .torrent
23-Янв-17 09:35 Пряников - Малый курс Таро (2014) Отв. 0 1,17 GB
1 | 0
Скачать .torrent
22-Ноя-16 09:26 Панфилов - Лидерский курс (2015) Отв. 0 7,96 GB
2 | 0
Скачать .torrent
[Профиль] [ЛС]
Показать сообщения:    
Ответить на тему

Константин Дуплищев | Курс Телесно-ориентированная психотерапия (2010) CamRip скачать торрент (torrent)

Текущее время: 26-Фев 00:56

Часовой пояс: UTC ± 0



Вы не можете начинать темы
Вы не можете отвечать на сообщения
Вы не можете редактировать свои сообщения
Вы не можете удалять свои сообщения
Вы не можете голосовать в опросах
Вы не можете прикреплять файлы к сообщениям
Вы не можете скачивать файлы