Фрэнк Пьюселик | Модели человеческой мотивации (2011) DVDRip скачать торрент (torrent)

Ответить на тему
 
Автор Сообщение

admin ®

Пол: Не указан

Стаж: 1 год 11 месяцев

Сообщений: 459

Создавать темы 13-Ноя-2016 21:33

[Цитировать]

- Фрэнк Пьюселик | Модели человеческой мотивации (2011) DVDRip - Автор (режиссер): Фрэнк Пьюселик
Жанр: Мотивация, Саморазвитие
Описание:
В ходе видеотренинга участники познакомятся с практическими результатами одного из интереснейших исследований ХХ века – исследованием моделей человеческой мотивации. Мы узнаем, что послужило ключом к успеху нашим наиболее выдающимся современникам, познакомимся с тремя главными мотивами, которые ими движут, и узнаем, как эти люди мыслят.
Цель и задачи видеотренинга: Детально изучить три основных мотива человеческого поведения. Определить наиболее эффективные способы коммуникации между представителями всех мотивов. Развить гибкость в использовании всех трех мотивов в себе. Научиться ставить и корректировать задачи, исходя из ведущего мотива подчиненного. Определять эффективное размещение сотрудников в иерархии, исходя из сочетаемости карт их мотивов.
Продолжительность: 02:42:33
Качество видео: DVDRip
Видео: MPEG-4 Visual, 640х480, ~1795 Kbps
Аудио: AAC, 2 ch, 129 Kbps, CBR

Mediainfo:

General
Complete name                            : C:\Torrents\Фрэнк Пьюселик - Модели человеческой мотивации\Models of human Motivation_DVD_1.mp4
Format                                   : MPEG-4
Format profile                           : Base Media
Codec ID                                 : isom
File size                                : 956 MiB
Duration                                 : 1h 9mn
Overall bit rate mode                    : Constant
Overall bit rate                         : 1 931 Kbps
Writing application                      : Lavf54.63.104
Video
ID                                       : 1
Format                                   : MPEG-4 Visual
Format profile                           : Simple@L1
Format settings, BVOP                    : No
Format settings, QPel                    : No
Format settings, GMC                     : No warppoints
Format settings, Matrix                  : Default (H.263)
Codec ID                                 : 20
Duration                                 : 1h 9mn
Bit rate mode                            : Constant
Bit rate                                 : 1 795 Kbps
Width                                    : 640 pixels
Height                                   : 480 pixels
Display aspect ratio                     : 4:3
Frame rate mode                          : Constant
Frame rate                               : 29.000 fps
Color space                              : YUV
Chroma subsampling                       : 4:2:0
Bit depth                                : 8 bits
Scan type                                : Progressive
Compression mode                         : Lossy
Bits/(Pixel*Frame)                       : 0.201
Stream size                              : 889 MiB (93%)
Writing library                          : Lavc54.92.100
Audio
ID                                       : 2
Format                                   : AAC
Format/Info                              : Advanced Audio Codec
Format profile                           : LC
Codec ID                                 : 40
Duration                                 : 1h 9mn
Bit rate mode                            : Constant
Bit rate                                 : 129 Kbps
Channel(s)                               : 2 channels
Channel positions                        : Front: L R
Sampling rate                            : 44.1 KHz
Compression mode                         : Lossy
Stream size                              : 63.9 MiB (7%)

Дополнительная информация:

Основные разделы видеотренинга:
- Мотив Власти
- Мотив Причастности
- Мотив Достижения
- Мыслительные процессы представителей разных мотивов
- Цели и результаты в жизни представителей разных мотивов
- Развитие мотивов
Модель состоит из 3х главных типов людей и их основных мотивов (могут быть как все, так и только часть из них):
1. Люди власти
- Влияние
- Воздействие
- Контроль
- Престиж
2. Люди процесса - "Причастники"
- Приобретение друзей
- Сохранение друзей
- Групповые мероприятия - возможность дружеского общения
3. Люди достижения
- Лучше самого себя
- Лучше других
- Сложные, трудные или интересные проекты
- Возможность для долгосрочной карьеры
Скриншоты:
Время раздачи: с 20:00 до 23:00 (до появления первых 3-5 скачавших)
Скачать .torrent

Для того, чтобы скачать торрент-файл

Фрэнк Пьюселик | Модели человеческой мотивации (2011) DVDRip

с нашего сайта, Вам необходимо Войти на сайт под своим логином! Если у Вас ещё нет логина, тогда Вам нужно сначала Зарегистрироваться!

Как скачивать? · Что такое торрент? · Правила, FAQ'и, инструкции

     Добавлен      Похожие темы Размер     S  |  L     Торрент
22-Ноя-16 09:25 Ковалев - Консультирование осуществления задуманного. Модели и модули реализации намерений (2016) Отв. 0 601 MB
2 | 0
Скачать .torrent
21-Ноя-16 23:54 Орлов, Панкратов - Школа менеджеров Стартоплан (2011) Отв. 0 3,86 GB
2 | 0
Скачать .torrent
13-Ноя-16 21:31 Сергей Змеев | Хозяин Судьбы 3.0 (2011) CamRip [H.264] Отв. 0 2,41 GB
4 | 0
Скачать .torrent
13-Ноя-16 21:31 Виктор Орлов | Шаблон Стагнера (2011) PCRec [H.264] Отв. 0 112 MB
6 | 0
Скачать .torrent
[Профиль] [ЛС]
Показать сообщения:    
Ответить на тему

Фрэнк Пьюселик | Модели человеческой мотивации (2011) DVDRip скачать торрент (torrent)

Текущее время: 24-Фев 03:39

Часовой пояс: UTC ± 0



Вы не можете начинать темы
Вы не можете отвечать на сообщения
Вы не можете редактировать свои сообщения
Вы не можете удалять свои сообщения
Вы не можете голосовать в опросах
Вы не можете прикреплять файлы к сообщениям
Вы не можете скачивать файлы