Олег Гадецкий | Уроки жизни [2012] DVDRip скачать торрент (torrent)

Ответить на тему
 
Автор Сообщение

admin ®

Пол: Не указан

Стаж: 1 год 11 месяцев

Сообщений: 459

Создавать темы 13-Ноя-2016 20:47

[Цитировать]

-Олег Гадецкий | Уроки жизни [2012] DVDRip- Автор (режиссер): Олег Гадецкий
Название: Уроки жизни
Год выпуска: 2012
Жанр: психологический тренинг
Качество видео: DVDRip
Продолжительность: 11:08:08
Видеокодек: WMV 2 и MPEG-4 AVC/H.264
Битрейт видео: ~25fps, 1500kbps / 10fps, 200kbps
Размер кадра: 720x576 / 768х576
Аудиокодек: WMA / MP3
Битрейт аудио: 96kbps, 48kHz , 2channels / 48kbps, 32kHz, mono
Описание:
"Цель моих тренингов, - говорит Олег Георгиевич, - в том, чтобы дать знание широкой аудитории о тонких законах окружающей реальности. Люди живут в мире, не зная его тонких законов. В силу этого они неизбежно совершают множество ошибок, за которые им приходиться расплачиваться в виде болезней, несчастных случаев, различных утрат и потерь. Пока люди не научатся уважать законы реальности, они никогда не смогут обрести счастье и успех, к которым стремятся".

Дополнительная информация:

В раздаче две папки: в wmv - более качественное видео, в avi - те же лекции, но c меньшим качеством/размером.

MediaInfo:

Общее
Полное имя : H:\My Videos\Lecture\Гадецкий\Gadeckiy\wmv\2012.07.20_Almaty, Lessons of life 1_Govardhan Gopal d..wmv
Формат : Windows Media
Размер файла : 1,56 Гбайт
Продолжительность : 2 ч. 19 м.
Режим общего битрейта : Переменный
Общий поток : 1607 Кбит/сек
Максимальный общий битрейт : 4198 Кбит/сек
Дата кодирования : UTC 2012-08-11 08:03:43.606
Видео
Идентификатор : 2
Формат : VC-1
Профиль формата : MP@ML
Идентификатор кодека : WMV3
Идентификатор кодека/Информация : Windows Media Video 9
Идентификатор кодека/Подсказка : WMV3
Описание кодека : Windows Media Video 9 - Professional
Продолжительность : 2 ч. 19 м.
Вид битрейта : Переменный
Битрейт : 1500 Кбит/сек
Ширина : 720 пикселей
Высота : 576 пикселей
Соотношение сторон : 5:4
Частота кадров : 25,000 кадров/сек
Стандарт вещания : PAL
Битовая глубина : 8 бит
Тип развёртки : Прогрессивная
Метод сжатия : С потерями
Бит/(Пиксели*Кадры) : 0.145
Размер потока : 1,46 Гбайт (93%)
NumberOfFrames : 208761
Аудио
Идентификатор : 1
Формат : WMA
Версия формата : Version 2
Идентификатор кодека : 161
Идентификатор кодека/Информация : Windows Media Audio
Описание кодека : Windows Media Audio 9.2 - 96 kbps, 48 kHz, stereo 2-pass VBR
Продолжительность : 2 ч. 19 м.
Вид битрейта : Переменный
Битрейт : 96,1 Кбит/сек
Каналы : 2 канала
Частота : 48,0 КГц
Битовая глубина : 16 бит
Размер потока : 95,7 Мбайт (6%)
NumberOfFrames : 24491
Общее
Полное имя : H:\My Videos\Lecture\Гадецкий\Gadeckiy\wmv\2012.07.21_Almaty, Lessons of life 2_Govardhan Gopal d..wmv
Формат : Windows Media
Размер файла : 3,46 Гбайт
Продолжительность : 5 ч. 7 м.
Режим общего битрейта : Переменный
Общий поток : 1608 Кбит/сек
Максимальный общий битрейт : 4339 Кбит/сек
Дата кодирования : UTC 2012-09-17 22:45:52.889
Видео
Идентификатор : 2
Формат : VC-1
Профиль формата : MP@ML
Идентификатор кодека : WMV3
Идентификатор кодека/Информация : Windows Media Video 9
Идентификатор кодека/Подсказка : WMV3
Описание кодека : Windows Media Video 9 - Professional
Продолжительность : 5 ч. 7 м.
Вид битрейта : Переменный
Битрейт : 1500 Кбит/сек
Ширина : 720 пикселей
Высота : 576 пикселей
Соотношение сторон : 5:4
Частота кадров : 25,000 кадров/сек
Стандарт вещания : PAL
Битовая глубина : 8 бит
Тип развёртки : Прогрессивная
Метод сжатия : С потерями
Бит/(Пиксели*Кадры) : 0.145
Размер потока : 3,23 Гбайт (93%)
NumberOfFrames : 461811
Аудио
Идентификатор : 1
Формат : WMA
Версия формата : Version 2
Идентификатор кодека : 161
Идентификатор кодека/Информация : Windows Media Audio
Описание кодека : Windows Media Audio 9.2 - 96 kbps, 48 kHz, stereo 2-pass VBR
Продолжительность : 5 ч. 7 м.
Вид битрейта : Переменный
Битрейт : 96,6 Кбит/сек
Каналы : 2 канала
Частота : 48,0 КГц
Битовая глубина : 16 бит
Размер потока : 213 Мбайт (6%)
NumberOfFrames : 54451
Общее
Полное имя : H:\My Videos\Lecture\Гадецкий\Gadeckiy\wmv\2012.07.22_Almaty, Lessons of life 3_Govardhan Gopal d..wmv
Формат : Windows Media
Размер файла : 2,48 Гбайт
Продолжительность : 3 ч. 41 м.
Режим общего битрейта : Переменный
Общий поток : 1607 Кбит/сек
Максимальный общий битрейт : 4291 Кбит/сек
Дата кодирования : UTC 2012-09-12 12:15:19.548
Видео
Идентификатор : 2
Формат : VC-1
Профиль формата : MP@ML
Идентификатор кодека : WMV3
Идентификатор кодека/Информация : Windows Media Video 9
Идентификатор кодека/Подсказка : WMV3
Описание кодека : Windows Media Video 9 - Professional
Продолжительность : 3 ч. 41 м.
Вид битрейта : Переменный
Битрейт : 1500 Кбит/сек
Ширина : 720 пикселей
Высота : 576 пикселей
Соотношение сторон : 5:4
Частота кадров : 25,000 кадров/сек
Стандарт вещания : PAL
Битовая глубина : 8 бит
Тип развёртки : Прогрессивная
Метод сжатия : С потерями
Бит/(Пиксели*Кадры) : 0.145
Размер потока : 2,32 Гбайт (93%)
NumberOfFrames : 331649
Аудио
Идентификатор : 1
Формат : WMA
Версия формата : Version 2
Идентификатор кодека : 161
Идентификатор кодека/Информация : Windows Media Audio
Описание кодека : Windows Media Audio 9.2 - 96 kbps, 48 kHz, stereo 2-pass VBR
Продолжительность : 3 ч. 41 м.
Вид битрейта : Переменный
Битрейт : 95,9 Кбит/сек
Каналы : 2 канала
Частота : 48,0 КГц
Битовая глубина : 16 бит
Размер потока : 152 Мбайт (6%)
NumberOfFrames : 38838
Общее
Полное имя : H:\My Videos\Lecture\Гадецкий\Gadeckiy\avi\2012.07.20_Almaty, Lessons of life 1_Govardhan Gopal d..avi
Формат : AVI
Формат/Информация : Audio Video Interleave
Размер файла : 251 Мбайт
Продолжительность : 2 ч. 19 м.
Общий поток : 252 Кбит/сек
Видео
Идентификатор : 0
Формат : AVC
Формат/Информация : Advanced Video Codec
Профиль формата : Main@L5.1
Параметр CABAC формата : Да
Параметр ReFrames формата : 1 кадр
Идентификатор кодека : H264
Продолжительность : 2 ч. 19 м.
Битрейт : 200 Кбит/сек
Ширина : 768 пикселей
Высота : 576 пикселей
Соотношение сторон : 4:3
Частота кадров : 10,000 кадров/сек
Цветовое пространство : YUV
Субдискретизация насыщенности : 4:2:0
Битовая глубина : 8 бит
Тип развёртки : Прогрессивная
Бит/(Пиксели*Кадры) : 0.045
Размер потока : 199 Мбайт (79%)
Аудио
Идентификатор : 1
Формат : MPEG Audio
Версия формата : Version 1
Профиль формата : Layer 3
Идентификатор кодека : 55
Идентификатор кодека/Подсказка : MP3
Продолжительность : 2 ч. 19 м.
Вид битрейта : Постоянный
Битрейт : 48,0 Кбит/сек
Каналы : 1 канал
Частота : 32,0 КГц
Метод сжатия : С потерями
Размер потока : 47,8 Мбайт (19%)
Выравнивание : Разделение по промежуткам
Продолжительность промежутка : 100 мс. (1,00 видеокадр)
Время предзагрузки промежутка : 142 мс.
Общее
Полное имя : H:\My Videos\Lecture\Гадецкий\Gadeckiy\avi\2012.07.21_Almaty, Lessons of life 2_Govardhan Gopal d..avi
Формат : AVI
Формат/Информация : Audio Video Interleave
Размер файла : 555 Мбайт
Продолжительность : 5 ч. 7 м.
Общий поток : 252 Кбит/сек
Видео
Идентификатор : 0
Формат : AVC
Формат/Информация : Advanced Video Codec
Профиль формата : Main@L5.1
Параметр CABAC формата : Да
Параметр ReFrames формата : 1 кадр
Идентификатор кодека : H264
Продолжительность : 5 ч. 7 м.
Битрейт : 200 Кбит/сек
Ширина : 768 пикселей
Высота : 576 пикселей
Соотношение сторон : 4:3
Частота кадров : 10,000 кадров/сек
Цветовое пространство : YUV
Субдискретизация насыщенности : 4:2:0
Битовая глубина : 8 бит
Тип развёртки : Прогрессивная
Бит/(Пиксели*Кадры) : 0.045
Размер потока : 441 Мбайт (79%)
Аудио
Идентификатор : 1
Формат : MPEG Audio
Версия формата : Version 1
Профиль формата : Layer 3
Идентификатор кодека : 55
Идентификатор кодека/Подсказка : MP3
Продолжительность : 5 ч. 7 м.
Вид битрейта : Постоянный
Битрейт : 48,0 Кбит/сек
Каналы : 1 канал
Частота : 32,0 КГц
Метод сжатия : С потерями
Размер потока : 106 Мбайт (19%)
Выравнивание : Разделение по промежуткам
Продолжительность промежутка : 100 мс. (1,00 видеокадр)
Время предзагрузки промежутка : 142 мс.
Общее
Полное имя : H:\My Videos\Lecture\Гадецкий\Gadeckiy\avi\2012.07.22_Almaty, Lessons of life 3_Govardhan Gopal d..avi
Формат : AVI
Формат/Информация : Audio Video Interleave
Размер файла : 399 Мбайт
Продолжительность : 3 ч. 41 м.
Общий поток : 252 Кбит/сек
Видео
Идентификатор : 0
Формат : AVC
Формат/Информация : Advanced Video Codec
Профиль формата : Main@L5.1
Параметр CABAC формата : Да
Параметр ReFrames формата : 1 кадр
Идентификатор кодека : H264
Продолжительность : 3 ч. 41 м.
Битрейт : 200 Кбит/сек
Ширина : 768 пикселей
Высота : 576 пикселей
Соотношение сторон : 4:3
Частота кадров : 10,000 кадров/сек
Цветовое пространство : YUV
Субдискретизация насыщенности : 4:2:0
Битовая глубина : 8 бит
Тип развёртки : Прогрессивная
Бит/(Пиксели*Кадры) : 0.045
Размер потока : 317 Мбайт (79%)
Аудио
Идентификатор : 1
Формат : MPEG Audio
Версия формата : Version 1
Профиль формата : Layer 3
Идентификатор кодека : 55
Идентификатор кодека/Подсказка : MP3
Продолжительность : 3 ч. 41 м.
Вид битрейта : Постоянный
Битрейт : 48,0 Кбит/сек
Каналы : 1 канал
Частота : 32,0 КГц
Метод сжатия : С потерями
Размер потока : 75,9 Мбайт (19%)
Выравнивание : Разделение по промежуткам
Продолжительность промежутка : 101 мс. (1,01 видеокадр)
Время предзагрузки промежутка : 142 мс.
Скриншоты:

Время раздачи: 24/7
Скачать .torrent

Для того, чтобы скачать торрент-файл

Олег Гадецкий | Уроки жизни [2012] DVDRip

с нашего сайта, Вам необходимо Войти на сайт под своим логином! Если у Вас ещё нет логина, тогда Вам нужно сначала Зарегистрироваться!

Как скачивать? · Что такое торрент? · Правила, FAQ'и, инструкции

     Добавлен      Похожие темы Размер     S  |  L     Торрент
19-Фев-17 12:03 Юрковская - Как получить от жизни всё (2016) Отв. 0 2,41 GB
3 | 0
Скачать .torrent
08-Фев-17 11:10 Бабанова - Лучший год вашей жизни (модуль 1) (2016) Отв. 0 733 MB
1 | 0
Скачать .torrent
01-Фев-17 13:04 Хоботов - Как подготовиться к встрече_переговорам_разговору (2012) Отв. 0 90 MB
1 | 0
Скачать .torrent
28-Янв-17 07:20 Петрановская - Семья в жизни человека (2016) Отв. 0 425 MB
2 | 0
Скачать .torrent
22-Янв-17 10:13 Хоботов - Как окончательно расстаться с бывшим (ей) (2012) Отв. 0 73 MB
1 | 0
Скачать .torrent
[Профиль] [ЛС]
Показать сообщения:    
Ответить на тему

Олег Гадецкий | Уроки жизни [2012] DVDRip скачать торрент (torrent)

Текущее время: 23-Фев 21:04

Часовой пояс: UTC ± 0



Вы не можете начинать темы
Вы не можете отвечать на сообщения
Вы не можете редактировать свои сообщения
Вы не можете удалять свои сообщения
Вы не можете голосовать в опросах
Вы не можете прикреплять файлы к сообщениям
Вы не можете скачивать файлы