Евгений Грин | Техника выхода в астрал [2013] CamRip скачать торрент (torrent)

Ответить на тему
 
Автор Сообщение

admin ®

Пол: Не указан

Стаж: 2 года 1 месяц

Сообщений: 459

Создавать темы 13-Ноя-2016 20:50

[Цитировать]

-Евгений Грин | Техника выхода в астрал [2013] CamRip- Авторская раздача
Автор (режиссер): Евгений Грин
Название: Техника выхода в астрал
Год выпуска: 2013
Жанр: Тренинг
Продолжительность: 01:44:57
Качество видео: CamRip
Видеокодек: WMV
Битрейт видео: ~2750 Kbps
Размер кадра: 1280х720
Аудиокодек: WMA
Битрейт аудио: 93 Kbps
Описание:
Тренинг посвящен вопросам работы с астралом. Дам самую последнюю информацию по этой теме, т.к. накопилось много нового в техниках, понимании и результатах экспериментов.
Тематика работы с астралом очень обширная, поэтому будут следующие моменты:
1) Строение астрала
2) Алгоритм развития опыта в астрале
3) Разновидности существ в астрале и принципы взаимодействия с ними
4) Принцип тренировок по работе с астралом
5) Вопросы безопасности
6) Рабочие техники выхода в астрал
7) Текущие проблемы в теме работы с астралом

MI

Общее
Полное имя                               : G:\video\Евгений Грин - Техника выхода в астрал.mp4
Формат                                   : MPEG-4
Профиль формата                          : Base Media / Version 2
Идентификатор кодека                     : mp42
Размер файла                             : 2,02 Гбайт
Продолжительность                        : 1 ч. 44 м.
Режим общего битрейта                    : Переменный
Общий поток                              : 2750 Кбит/сек
Дата кодирования                         : UTC 2013-04-25 13:09:34
Дата пометки                             : UTC 2013-04-25 13:09:34
Видео
Идентификатор                            : 1
Формат                                   : AVC
Формат/Информация                        : Advanced Video Codec
Профиль формата                          : [url=mailto:High@L3.1]High@L3.1[/url]
Параметр CABAC формата                   : Да
Параметр ReFrames формата                : 4 кадра
Идентификатор кодека                     : avc1
Идентификатор кодека/Информация          : Advanced Video Coding
Продолжительность                        : 1 ч. 44 м.
Продолжительность оригинала              : 1 ч. 44 м.
Вид битрейта                             : Переменный
Битрейт                                  : 2654 Кбит/сек
Максимальный битрейт                     : 3072 Кбит/сек
Ширина                                   : 1280 пикселей
Высота                                   : 720 пикселей
Соотношение сторон                       : 16:9
Режим частоты кадров                     : Постоянный
Частота кадров                           : 25,000 кадров/сек
Стандарт вещания                         : PAL
Цветовое пространство                    : YUV
Субдискретизация насыщенности            : 4:2:0
Битовая глубина                          : 8 бит
Тип развёртки                            : Прогрессивная
Бит/(Пиксели*Кадры)                      : 0.115
Размер потока                            : 1,95 Гбайт (97%)
Размер потока оригинала                  : 1,95 Гбайт (97%)
Язык                                     : English
Дата кодирования                         : UTC 2013-04-25 13:09:34
Дата пометки                             : UTC 2013-04-25 13:09:34
mdhd_Duration                            : 6302104
Основные цвета                           : BT.709
Характеристики трансфера                 : BT.709
Коэффициенты матрицы                     : BT.709
Аудио
Идентификатор                            : 2
Формат                                   : AAC
Формат/Информация                        : Advanced Audio Codec
Профиль формата                          : LC
Идентификатор кодека                     : 40
Продолжительность                        : 1 ч. 44 м.
Продолжительность оригинала              : 1 ч. 44 м.
Вид битрейта                             : Постоянный
Битрейт                                  : 93,3 Кбит/сек
Каналы                                   : 2 канала
Расположение каналов                     : Front: L R
Частота                                  : 44,1 КГц
Метод сжатия                             : С потерями
Размер потока                            : 70,3 Мбайт (3%)
Размер потока оригинала                  : 70,3 Мбайт (3%)
Язык                                     : English
Дата кодирования                         : UTC 2013-04-25 13:09:34
Дата пометки                             : UTC 2013-04-25 13:09:34
mdhd_Duration                            : 6313759
Скриншоты:

Время раздачи: с 9:00 до 22:00
Скачать .torrent

Для того, чтобы скачать торрент-файл

Евгений Грин | Техника выхода в астрал [2013] CamRip

с нашего сайта, Вам необходимо Войти на сайт под своим логином! Если у Вас ещё нет логина, тогда Вам нужно сначала Зарегистрироваться!

Как скачивать? · Что такое торрент? · Правила, FAQ'и, инструкции

     Добавлен      Похожие темы Размер     S  |  L     Торрент
12-Мар-17 09:33 Вацлавская - Я источник наслаждения и кайфа (2013) Отв. 0 2,91 GB
1 | 0
Скачать .torrent
10-Мар-17 10:45 Вацлавская - Женский путь к цели. Как сопротивление превратить во вдохновение (2013) Отв. 0 413 MB
1 | 0
Скачать .torrent
09-Мар-17 10:46 Вацлавская - Женская сила. Ключи к золотому источнику (2013) Отв. 0 244 MB
1 | 0
Скачать .torrent
04-Мар-17 08:28 Лукьянова - Я - самая прекрасная (2013) Отв. 0 925 MB
1 | 0
Скачать .torrent
19-Фев-17 12:02 Рубштейн - Женственность (2013) Отв. 0 539 MB
1 | 0
Скачать .torrent
[Профиль] [ЛС]
Показать сообщения:    
Ответить на тему

Евгений Грин | Техника выхода в астрал [2013] CamRip скачать торрент (torrent)

Текущее время: 28-Мар 21:37

Часовой пояс: UTC ± 0



Вы не можете начинать темы
Вы не можете отвечать на сообщения
Вы не можете редактировать свои сообщения
Вы не можете удалять свои сообщения
Вы не можете голосовать в опросах
Вы не можете прикреплять файлы к сообщениям
Вы не можете скачивать файлы