Николай Ягодкин | Полный пакет эффективных технологий (2013) [DVDRip] скачать торрент (torrent)

Ответить на тему
 
Автор Сообщение

admin ®

Пол: Не указан

Стаж: 2 года 1 месяц

Сообщений: 459

Создавать темы 13-Ноя-2016 20:59

[Цитировать]

-Николай Ягодкин | Полный пакет эффективных технологий (2013) [DVDRip]- Автор (режиссер): Николай Ягодкин
Жанр: Саморазвитие
Продолжительность: Больше 20 часов
Качество видео: DVDRip
Видеокодек: AVC
Битрейт видео: ~500 Kbps
Размер кадра: 854x480
Аудиокодек: AAC
Битрейт аудио: ~128 Kbps, 48.0 KHz, 2 channels
Описание:
Пакет из трех курсов: тренинг "Технология постановки навыков", практический курс "Технологии обучения и работы с информацией", курс-интенсив "Развитие памяти и внимания"

Дополнительная информация:

Пройдя эти курсы Вы сможете
-Вы утроите скорость и качество Вашего обучения в любой области!
-Вы сможете структурировать и запомнить любой школьный учебник за вечер, ВУЗовский - за пару вечеров!
-Вы сможете легко запоминать сотни фактов, дат, определений, теорем в день и помнить их неограниченно долго!
-Быстро обрабатывать, структурировать и запоминать информацию любого вида.
-Писать ста тьи/книги/курсовые работы/дипломы
-Эффективно формировать у себя новые навыки
-Подготовиться к сессии за пару дней
-Получить высшее образование за год
-Освоить новую профессию за месяц
-Выучить иностранный язык за 3 месяца
-Стать профессионалом в выбранной Вами области
-Быстрее двигаться по карьерной лестнице
-Получить более высокооплачиваемую работу
-При этом экономить сотни часов и учиться с удовольствием!

MediaInfo

Общее
Полное имя : C:\Users\Gravit\Downloads\polni.paket\Вспомогательные материалы\Материалы КРП с США.pdf
Размер файла : 914 Кбайт
Общее
Полное имя : C:\Users\Gravit\Downloads\polni.paket\Навыки\Навыки 1 часть.flv
Формат : MPEG-4
Профиль формата : Base Media
Идентификатор кодека : isom
Размер файла : 700 Мбайт
Продолжительность : 1 ч. 44 м.
Общий поток : 934 Кбит/сек
Программа кодирования : Lavf54.63.104
Видео
Идентификатор : 1
Формат : AVC
Формат/Информация : Advanced Video Codec
Профиль формата : High@L3.0
Параметр CABAC формата : Да
Параметр ReFrames формата : 3 кадра
Идентификатор кодека : avc1
Идентификатор кодека/Информация : Advanced Video Coding
Продолжительность : 1 ч. 44 м.
Битрейт : 800 Кбит/сек
Ширина : 854 пикселя
Высота : 480 пикселей
Соотношение сторон : 16:9
Режим частоты кадров : Постоянный
Частота кадров : 25,000 кадров/сек
Цветовое пространство : YUV
Субдискретизация насыщенности : 4:2:0
Битовая глубина : 8 бит
Тип развёртки : Прогрессивная
Бит/(Пиксели*Кадры) : 0.078
Размер потока : 599 Мбайт (86%)
Библиотека кодирования : x264 core 118
Настройки программы : cabac=1 / ref=3 / deblock=1:0:0 / analyse=0x3:0x113 / me=hex / subme=7 / psy=1 / psy_rd=1.00:0.00 / mixed_ref=1 / me_range=16 / chroma_me=0 / trellis=1 / 8x8dct=1 / cqm=0 / deadzone=21,11 / fast_pskip=1 / chroma_qp_offset=-2 / threads=36 / sliced_threads=0 / nr=0 / decimate=1 / interlaced=0 / bluray_compat=0 / constrained_intra=0 / bframes=3 / b_pyramid=1 / b_adapt=1 / b_bias=0 / direct=1 / weightb=1 / open_gop=0 / weightp=2 / keyint=250 / keyint_min=25 / scenecut=40 / intra_refresh=0 / rc_lookahead=40 / rc=2pass / mbtree=1 / bitrate=800 / ratetol=1.0 / qcomp=0.60 / qpmin=0 / qpmax=69 / qpstep=4 / cplxblur=20.0 / qblur=0.5 / ip_ratio=1.41 / aq=1:1.00
Язык : English
Аудио
Идентификатор : 2
Формат : AAC
Формат/Информация : Advanced Audio Codec
Профиль формата : LC
Идентификатор кодека : 40
Продолжительность : 1 ч. 44 м.
Вид битрейта : Постоянный
Битрейт : 128 Кбит/сек
Каналы : 2 канала
Расположение каналов : Front: L R
Частота : 48,0 КГц
Метод сжатия : С потерями
Размер потока : 95,8 Мбайт (14%)
Язык : English
Общее
Полное имя : C:\Users\Gravit\Downloads\polni.paket\Навыки\Навыки 2 часть.flv
Формат : MPEG-4
Профиль формата : Base Media
Идентификатор кодека : isom
Размер файла : 421 Мбайт
Продолжительность : 2 ч. 1 м.
Общий поток : 483 Кбит/сек
Программа кодирования : Lavf54.63.104
Видео
Идентификатор : 1
Формат : AVC
Формат/Информация : Advanced Video Codec
Профиль формата : Baseline@L2.1
Параметр CABAC формата : Нет
Параметр ReFrames формата : 3 кадра
Идентификатор кодека : avc1
Идентификатор кодека/Информация : Advanced Video Coding
Продолжительность : 2 ч. 1 м.
Битрейт : 350 Кбит/сек
Ширина : 480 пикселей
Высота : 272 пикселя
Соотношение сторон : 16:9
Режим частоты кадров : Постоянный
Частота кадров : 25,000 кадров/сек
Цветовое пространство : YUV
Субдискретизация насыщенности : 4:2:0
Битовая глубина : 8 бит
Тип развёртки : Прогрессивная
Бит/(Пиксели*Кадры) : 0.107
Размер потока : 305 Мбайт (73%)
Библиотека кодирования : x264 core 118
Настройки программы : cabac=0 / ref=3 / deblock=1:0:0 / analyse=0x1:0x111 / me=hex / subme=7 / psy=1 / psy_rd=1.00:0.00 / mixed_ref=1 / me_range=16 / chroma_me=0 / trellis=1 / 8x8dct=0 / cqm=0 / deadzone=21,11 / fast_pskip=1 / chroma_qp_offset=-2 / threads=12 / sliced_threads=0 / nr=0 / decimate=1 / interlaced=0 / bluray_compat=0 / constrained_intra=0 / bframes=0 / weightp=0 / keyint=250 / keyint_min=25 / scenecut=40 / intra_refresh=0 / rc_lookahead=40 / rc=abr / mbtree=1 / bitrate=350 / ratetol=1.0 / qcomp=0.60 / qpmin=0 / qpmax=69 / qpstep=4 / ip_ratio=1.41 / aq=1:1.00
Язык : English
Аудио
Идентификатор : 2
Формат : AAC
Формат/Информация : Advanced Audio Codec
Профиль формата : LC
Идентификатор кодека : 40
Продолжительность : 2 ч. 1 м.
Вид битрейта : Постоянный
Битрейт : 128 Кбит/сек
Каналы : 2 канала
Расположение каналов : Front: L R
Частота : 48,0 КГц
Метод сжатия : С потерями
Размер потока : 111 Мбайт (26%)
Язык : English
Скриншоты:

Время раздачи: с 10:00 до 22:00 до 5 скачавших
Скачать .torrent

Для того, чтобы скачать торрент-файл

Николай Ягодкин | Полный пакет эффективных технологий (2013) [DVDRip]

с нашего сайта, Вам необходимо Войти на сайт под своим логином! Если у Вас ещё нет логина, тогда Вам нужно сначала Зарегистрироваться!

Как скачивать? · Что такое торрент? · Правила, FAQ'и, инструкции

     Добавлен      Похожие темы Размер     S  |  L     Торрент
13-Ноя-16 20:24 Валерий Петухов | Полный курс лекций по Общей психологии (1997-1998) [MP3] Отв. 0 3,71 GB
11 | 0
Скачать .torrent
13-Ноя-16 19:31 Дмитрий Новосельцев | Полный курс НЛП. От Практика до Мастера коммуникации (2011) [MP3] Отв. 0 3,02 GB
12 | 0
Скачать .torrent
13-Ноя-16 18:30 Дуглас Мосс, Алекс Нарбут | Дейл Карнеги. Полный курс обучения приемам общения (2016) [FB2, RTF] Отв. 0 5 MB
38 | 2
Скачать .torrent
11-Ноя-16 20:47 Татьяна Борщ | Самый полный гороскоп на 2017 год. Астрологический прогноз для всех знаков Зодиака (2016) [FB2] Отв. 0 2 MB
18 | 0
Скачать .torrent
[Профиль] [ЛС]
Показать сообщения:    
Ответить на тему

Николай Ягодкин | Полный пакет эффективных технологий (2013) [DVDRip] скачать торрент (torrent)

Текущее время: 28-Мар 21:35

Часовой пояс: UTC ± 0



Вы не можете начинать темы
Вы не можете отвечать на сообщения
Вы не можете редактировать свои сообщения
Вы не можете удалять свои сообщения
Вы не можете голосовать в опросах
Вы не можете прикреплять файлы к сообщениям
Вы не можете скачивать файлы