Лев Вожеватов | Харизма в соблазнении 2.0. Запрещенные приемы влюбления в себя девушки (2013) CamRip скачать торрент (torrent)

Ответить на тему
 
Автор Сообщение

admin ®

Пол: Не указан

Стаж: 2 года 5 месяцев

Сообщений: 692

Создавать темы 13-Ноя-2016 21:01

[Цитировать]

-Лев Вожеватов | Харизма в соблазнении 2.0. Запрещенные приемы влюбления в себя девушки (2013) CamRip- Описание:
от автора:
“Харизма в соблазнении 2” является продвинутой версией первой части, которую я проводил вместе с Алексом Одессой 3 года назад. Прошло время, прибавился опыт и я понял, что могу выдать более интерсные, результативные методики, которые могут давать результаты быстрее, чем раньше. В нем больше конкретики, которые можно пойти сделать и получить результаты.
Автор (режиссер): Лев Вожеватов
Жанр: пикап, соблазнение, знакомства
Продолжительность: 03:16:29(видео+аудио)
Качество видео: CamRip
Видеокодек: H264 - MPEG-4 AVC
Битрейт видео: ~1954 kbps, 25 fps
Размер кадра: 1440x1080
Аудиокодек: MP3
Битрейт аудио: в видео: 128 kbps, 2 ch, 44100 Hz, в аудио: 96 kbps, 2 ch, 44100 Hz

Дополнительная информация:

Презентация курса: http://youtu.be/OCA78EFmrd8
+аудио версия (немного короче) и книжные версии разных форматов.

MediaInfo:

Общее
Полное имя Харизма в соблазнении 2\Audio\1HVS2-KakGenshiniVibirautMugchin.mp3
Формат : MPEG Audio
Размер файла : 24,5 Мбайт
Продолжительность : 33 м.
Режим общего битрейта : Постоянный
Общий поток : 96,0 Кбит/сек
Альбом : Харизма в соблазнении 2
Трек : Как женщины выбирают мужчин
Исполнитель : Лев Вожеватов
Жанр : обучение
Дата записи : 2012
Библиотека кодирования : LAME3.97 (beta)
Обложка : Yes
Тип обложки : Cover (front)
MIME-тип обложки : image/jpg
URL : http://harizma2.ru/
Аудио
Формат : MPEG Audio
Версия формата : Version 1
Профиль формата : Layer 3
Продолжительность : 33 м.
Вид битрейта : Постоянный
Битрейт : 96,0 Кбит/сек
Каналы : 2 канала
Частота : 44,1 КГц
Метод сжатия : С потерями
Размер потока : 23,2 Мбайт (95%)
Библиотека кодирования : LAME3.97 (beta)
Общее
Полное имя : Харизма в соблазнении 2\Audio\2HVS2-OshibkiIPravilaObsheniya.mp3
Формат : MPEG Audio
Размер файла : 18,1 Мбайт
Продолжительность : 26 м.
Режим общего битрейта : Постоянный
Общий поток : 96,0 Кбит/сек
Альбом : Харизма в соблазнении 2
Трек : Ошибки и правила общения
Исполнитель : Лев Вожеватов
Жанр : обучение
Дата записи : 2012
Библиотека кодирования : LAME3.97 (beta)
Обложка : Yes
Тип обложки : Cover (front)
MIME-тип обложки : image/jpg
URL : http://harizma2.ru/
Аудио
Формат : MPEG Audio
Версия формата : Version 1
Профиль формата : Layer 3
Продолжительность : 26 м.
Вид битрейта : Постоянный
Битрейт : 96,0 Кбит/сек
Каналы : 2 канала
Частота : 44,1 КГц
Метод сжатия : С потерями
Размер потока : 18,1 Мбайт (100%)
Библиотека кодирования : LAME3.97 (beta)
Общее
Полное имя : Харизма в соблазнении 2\Audio\3HVS2-TehnikaBezotkaznogoZnakomstva.mp3
Формат : MPEG Audio
Размер файла : 17,7 Мбайт
Продолжительность : 25 м.
Режим общего битрейта : Постоянный
Общий поток : 96,0 Кбит/сек
Альбом : Харизма в соблазнении 2
Трек : Техника безотказного знакомства
Исполнитель : Лев Вожеватов
Жанр : обучение
Дата записи : 2012
Библиотека кодирования : LAME3.97 (beta)
Обложка : Yes
Тип обложки : Cover (front)
MIME-тип обложки : image/jpg
URL : http://harizma2.ru/
Аудио
Формат : MPEG Audio
Версия формата : Version 1
Профиль формата : Layer 3
Продолжительность : 25 м.
Вид битрейта : Постоянный
Битрейт : 96,0 Кбит/сек
Каналы : 2 канала
Частота : 44,1 КГц
Метод сжатия : С потерями
Размер потока : 17,7 Мбайт (100%)
Библиотека кодирования : LAME3.97 (beta)
Общее
Полное имя : Харизма в соблазнении 2\Video\Harizma_v_soblaznenii 2.avi
Формат : AVI
Формат/Информация : Audio Video Interleave
Размер файла : 1,51 Гбайт
Продолжительность : 1 ч. 50 м.
Общий поток : 1955 Кбит/сек
Видео
Идентификатор : 0
Формат : AVC
Формат/Информация : Advanced Video Codec
Профиль формата : Main@L4.0
Параметр CABAC формата : Да
Параметр ReFrames формата : 1 кадр
Параметр GOP формата : M=1, N=25
Идентификатор кодека : X264
Идентификатор кодека/Информация : XiWave GNU GPL x264 MPEG-4
Продолжительность : 1 ч. 50 м.
Битрейт : 1814 Кбит/сек
Ширина : 1440 пикселей
Высота : 1080 пикселей
Соотношение сторон : 4:3
Режим частоты кадров : Переменный
Частота кадров : 25,000 кадров/сек
Цветовое пространство : YUV
Субдискретизация насыщенности : 4:2:0
Битовая глубина : 8 бит
Тип развёртки : Прогрессивная
Бит/(Пиксели*Кадры) : 0.047
Размер потока : 1,40 Гбайт (93%)
Аудио
Идентификатор : 1
Формат : MPEG Audio
Версия формата : Version 1
Профиль формата : Layer 3
Идентификатор кодека : 55
Идентификатор кодека/Подсказка : MP3
Продолжительность : 1 ч. 50 м.
Вид битрейта : Постоянный
Битрейт : 128 Кбит/сек
Каналы : 2 канала
Частота : 44,1 КГц
Метод сжатия : С потерями
Размер потока : 101 Мбайт (7%)
Выравнивание : Разделение по промежуткам
Продолжительность промежутка : 26 мс. (0,65 видеокадр)
Время предзагрузки промежутка : 1219 мс.
Библиотека кодирования : LAME3.98.2
Скриншоты:

Время раздачи: пн-пт с 10.00 до 23.00
Скачать .torrent

Для того, чтобы скачать торрент-файл

Лев Вожеватов | Харизма в соблазнении 2.0. Запрещенные приемы влюбления в себя девушки (2013) CamRip

с нашего сайта, Вам необходимо Войти на сайт под своим логином! Если у Вас ещё нет логина, тогда Вам нужно сначала Зарегистрироваться!

Как скачивать? · Что такое торрент? · Правила, FAQ'и, инструкции

     Добавлен      Похожие темы Размер     S  |  L     Торрент
09-Май-17 12:54 Радислав Гандапас - Харизма лидера в бизнесе (2007) Отв. 0 1,15 GB
30 | 0
Скачать .torrent
09-Апр-17 16:56 Ричард Дэнсон | Черная риторика. Запрещенные приёмы ведения дискуссий (2016) [FB2] Отв. 0 185 KB
62 | 0
Скачать .torrent
05-Дек-16 20:39 Шальнов - Харизма 21 века (2016) Отв. 0 1,01 GB
1 | 0
Скачать .torrent
13-Ноя-16 21:01 Алексей Хитров | V.I.P. ХАРИЗМА. Самые жесткие приемы психологической атаки (2010) CamRip Отв. 0 2,08 GB
6 | 0
Скачать .torrent
[Профиль] [ЛС]
Показать сообщения:    
Ответить на тему

Лев Вожеватов | Харизма в соблазнении 2.0. Запрещенные приемы влюбления в себя девушки (2013) CamRip скачать торрент (torrent)

Текущее время: 21-Авг 21:28

Часовой пояс: UTC ± 0



Вы не можете начинать темы
Вы не можете отвечать на сообщения
Вы не можете редактировать свои сообщения
Вы не можете удалять свои сообщения
Вы не можете голосовать в опросах
Вы не можете прикреплять файлы к сообщениям
Вы не можете скачивать файлы