Алексей Хитров | V.I.P. ХАРИЗМА. Самые жесткие приемы психологической атаки (2010) CamRip скачать торрент (torrent)

Ответить на тему
 
Автор Сообщение

admin ®

Пол: Не указан

Стаж: 2 года 9 месяцев

Сообщений: 906

Создавать темы 13-Ноя-2016 21:01

[Цитировать]

-Алексей Хитров | V.I.P. ХАРИЗМА. Самые жесткие приемы психологической атаки (2010) CamRip- Автор (режиссер): Алексей Хитров
Жанр: саморазвитие, самооборона, психология
Продолжительность: 07:49:44(видео+аудио)
Качество видео: CamRip
Видеокодек: XviD
Битрейт видео: ~1681 kb/s, 25 fps
Размер кадра: 720x576
Аудиокодек: MP3
Битрейт аудио: 128 kb/s, 2 ch, 44100 Hz
Описание:
Как быстро заставить человека сделать то, что нам нужно?
Как чувствовать себя уверенно в любой ситуации?
Как быстро гасить неуважение и претензии в Вашу сторону?
Как продавить свою точку зрения в переговорах?
ШОК - ТРЕНИНГ "V.I.P. ХАРИЗМА"
Эффективные приемы психологической атаки.
Осаживание «нарывающихся» и «зарвавшихся».
Противодействие давлению и наездам на вас.
Вы знаете, что общество делится на стадо и тех, кто им управляет.
Что к вам относятся как к «быдлу» те, у кого чуть больше власти и денег...
Пришло время поставить все и всех на свои места.
Возьмите эти приемы и станьте больше, чем просто обывателем. Как незаметно подчинить себе человека.
Вторжение в психическое пространство человека, создание ощущения биологического необъяснимого страха.
Слом барьеров заложенных в вас моралью воспитывающей «овец».
Закрытые знания по зонам психического и физического поражения человека.
Создание оппоненту чувства, что вы существо более высокого ранга. Даже если у него более дорогие внешние признаки статуса: кабинет, автомобиль, одежда, часы и т.д.
Как это применить с теми, кто физически крупнее, сильнее вас и как «сломать» их тоже.
Как «Съехать на базаре», если есть физическая агрессия в вашу сторону.
Для чего применяем:
В общении с более статусными людьми: начальниками и… президентами . Чтобы создать чувство, что мы тоже многого стоим. Вызвать уважение.
В переговорах, чтобы подвинуть к нужному нам решению.
В ситуациях общения с наглыми чиновниками, ГИБДДшниками и т.д. чтобы вынудить действовать по справедливости.
В ситуации опасности. Чтобы агрессор отказался от своих планов.
Чтобы быстро получить от людей нужные нам действия, без нудного уговаривания.
Чтобы окружающие испытывали к нам чувство уважения.
На работе, чтобы сотрудники внимательно относились к нашим словам. А вышестоящие больше ценили.
Чтобы ощутить в себе внутреннюю СИЛУ.
Кому Не надо идти на этот тренинг:
Кто готов терпеть пренебрежение в свою сторону.
Кто проглатывает надменность и оскорбления в свою сторону.
Кто готов отдать другим блага, которые могли принадлежать ему.
Кому однозначно стоит идти на этот тренинг:
Руководителям. Чтобы им не «имели» мозг сотрудники.
Предпринимателям. Чтобы их уважали партнеры.
Тем, для кого слова: свобода, уважение, достоинство – не пустой звук.
Любому мужчине.
Девушкам, которые хотят чувствовать себя безопасно.

Дополнительная информация:

Год тренинга или 2010 или 2011. В некоторых источниках 2011 написан.

MediaInfo:

Общее
Полное имя : Алексей Хитров - VIP Харизма\VIP Харизма\VTS_02_1.avi
Формат : AVI
Формат/Информация : Audio Video Interleave
Размер файла : 33,7 Мбайт
Продолжительность : 2 м. 35 с.
Общий поток : 1820 Кбит/сек
Программа кодирования : MEncoder SVN-r30881(20100311-gcc4.3.3)
Библиотека кодирования : MPlayer
Видео
Идентификатор : 0
Формат : MPEG-4 Visual
Профиль формата : Advanced Simple@L5
Параметр BVOP формата : 2
Параметр QPel формата : Нет
Параметр GMC формата : Без точки перехода
Параметр матрицы формата : Default (H.263)
Идентификатор кодека : XVID
Идентификатор кодека/Подсказка : XviD
Продолжительность : 2 м. 35 с.
Битрейт : 1681 Кбит/сек
Ширина : 720 пикселей
Высота : 576 пикселей
Соотношение сторон : 4:3
Частота кадров : 25,000 кадров/сек
Стандарт вещания : PAL
Цветовое пространство : YUV
Субдискретизация насыщенности : 4:2:0
Битовая глубина : 8 бит
Тип развёртки : Прогрессивная
Метод сжатия : С потерями
Бит/(Пиксели*Кадры) : 0.162
Размер потока : 31,1 Мбайт (92%)
Библиотека кодирования : XviD 1.2.1 (UTC 2008-12-04)
Аудио
Идентификатор : 1
Формат : MPEG Audio
Версия формата : Version 1
Профиль формата : Layer 3
Режим : Joint stereo
Расширение режима : MS Stereo
Идентификатор кодека : 55
Идентификатор кодека/Подсказка : MP3
Продолжительность : 2 м. 35 с.
Вид битрейта : Постоянный
Битрейт : 128 Кбит/сек
Каналы : 2 канала
Частота : 44,1 КГц
Метод сжатия : С потерями
Задержка видео : 40 мс.
Размер потока : 2,37 Мбайт (7%)
Выравнивание : Соединение по промежуткам
Продолжительность промежутка : 26 мс. (0,65 видеокадр)
Время предзагрузки промежутка : 522 мс.
Общее
Полное имя : VIP Харизма аудио\IC_C0005.MP3
Формат : MPEG Audio
Размер файла : 3,26 Мбайт
Продолжительность : 4 м. 45 с.
Режим общего битрейта : Постоянный
Общий поток : 96,0 Кбит/сек
Аудио
Формат : MPEG Audio
Версия формата : Version 2
Профиль формата : Layer 3
Режим : Joint stereo
Расширение режима : MS Stereo
Продолжительность : 4 м. 45 с.
Вид битрейта : Постоянный
Битрейт : 96,0 Кбит/сек
Каналы : 2 канала
Частота : 24,0 КГц
Метод сжатия : С потерями
Размер потока : 3,26 Мбайт (100%)
Общее
Полное имя : D:\Тренинги\Алексей Хитров - VIP Харизма\Быстрое достижение\Быстрое достижение. Духовные цели\1 что дает работа с состояниями.mp3
Формат : MPEG Audio
Размер файла : 1021 Кбайт
Продолжительность : 5 м. 48 с.
Режим общего битрейта : Постоянный
Общий поток : 24,0 Кбит/сек
Жанр : Other
Аудио
Формат : MPEG Audio
Версия формата : Version 2
Профиль формата : Layer 3
Продолжительность : 5 м. 50 с.
Вид битрейта : Постоянный
Битрейт : 24,0 Кбит/сек
Каналы : 1 канал
Частота : 22,05 КГц
Метод сжатия : С потерями
Размер потока : 1021 Кбайт (100%)
Скриншоты:

Время раздачи: пн-пт с 10 до 23
Скачать .torrent

Для того, чтобы скачать торрент-файл

Алексей Хитров | V.I.P. ХАРИЗМА. Самые жесткие приемы психологической атаки (2010) CamRip

с нашего сайта, Вам необходимо Войти на сайт под своим логином! Если у Вас ещё нет логина, тогда Вам нужно сначала Зарегистрироваться!

Как скачивать? · Что такое торрент? · Правила, FAQ'и, инструкции

     Добавлен      Похожие темы Размер     S  |  L     Торрент
03-Окт-17 05:46 Алексей Чернозем - Большая книга женского влияния. За спиной успешного мужчины всегда стоит женщина! (2017) Отв. 0 1 MB
32 | 8
Скачать .torrent
02-Сен-17 10:24 Борис Акимов - Медитация. Самовнушение. Аутотренинг. Самые эффективные психотехники (2014) Отв. 0 1013 KB
80 | 8
Скачать .torrent
02-Сен-17 10:23 Алексей Сорокин - Мастер словесных разборок. Секреты победы в уличных и бытовых конфликтах (2013) Отв. 0 6 MB
136 | 22
Скачать .torrent
02-Сен-17 10:22 В.Б. Зайцев - Мгновенный гипноз. Сила внушения, приемы, техники (2013) Отв. 0 2 MB
98 | 8
Скачать .torrent
02-Сен-17 08:49 Алексей Столяров, Александр Столяров - Сексология (2017) Отв. 0 2 MB
54 | 0
Скачать .torrent
[Профиль] [ЛС]
Показать сообщения:    
Ответить на тему

Алексей Хитров | V.I.P. ХАРИЗМА. Самые жесткие приемы психологической атаки (2010) CamRip скачать торрент (torrent)

Текущее время: 14-Дек 21:02

Часовой пояс: UTC ± 0



Вы не можете начинать темы
Вы не можете отвечать на сообщения
Вы не можете редактировать свои сообщения
Вы не можете удалять свои сообщения
Вы не можете голосовать в опросах
Вы не можете прикреплять файлы к сообщениям
Вы не можете скачивать файлы