Радислав Гандапас | Скрипты успеха (2014) HDRip скачать торрент (torrent)

Ответить на тему
 
Автор Сообщение

admin ®

Пол: Не указан

Стаж: 2 года 4 месяца

Сообщений: 683

Создавать темы 13-Ноя-2016 21:17

[Цитировать]

-Радислав Гандапас | Скрипты успеха (2014) HDRip- Автор (режиссер): Радислав Гандапас
Жанр: Достижение цели
Продолжительность: 01:00:19
Качество видео: HDRip
Видеокодек: AVC
Битрейт видео: ~15.0 Mbps
Размер кадра: 1280х720
Аудиокодек: AAC
Битрейт аудио: 192 Kbps, 2ch, 48.0 KHz
Описание:
Для человека нормально стремиться к успеху. На первый взгляд, каждый из успешных людей пришел к успеху своим путем. Автор фильма детально исследовал эти пути и выявил закономерности жизненных сценариев, скриптов, которые этими людьми были реализованы. В фильме "Скрипты успеха" нет пошаговых инструкций. Автор поставил себе цель прояснить главные принципы построения успешной жизни. Важно различать успех профессиональный и успех личный. Часто они не только противоречат друг другу, но и мешают друг другу. Автор настаивает на том, что на определенных этапах жизни необходимо все силы бросить на достижение профессионального успеха, и лишь на этой основе строить успех жизни в целом. Тема успеха и методов его достижения будет продолжена в фильме "Алгоритмы успеха".

Содержание курса:

Понятие "успех"
Нужен ли он вообще - успех?
Критерии успешности
Успех личный и успех профессиональный
Типовые ошибки на пути к успеху
Четыре этапа развития успеха
Сценарий успешной жизни
"Успех" от слова "успеть"
Принципы, помогающие достичь успеха быстрее других
КАК ДОБИТЬСЯ УСПЕХА
Однажды успешного человека спросили: “Как добиться такого успеха, какого добились Вы?”
Успешный человек сказал: «Ответ прост. Нужно принимать правильные решения.”
Успешного человека спросили: «Как научиться принимать такие решения?”
Успешный человек ответил: «Ответ прост. Нужно иметь опыт.”
И тогда успешного человека спросили: «А что нужно сделать, чтобы приобрести такой опыт?”
И успешный человек ответил: «Ответ на этот вопрос прост: в течение некоторого времени принимать неправильные решения.»
ОПЫТ УСПЕШНЫХ ЛЮДЕЙ
Автор этого фильма приобрел жизненный опыт, некоторое время принимая неправильные решения. Приобретя этот опыт, он стал принимать правильные решения. В результате правильных решений ему стал доступен некий успех в профессиональной и личной сфере.
Автор соотнес полученный опыт с опытом других успешных людей, биография которых удалась. В результате оказалось, что скрипты и алгоритмы успеха у людей в разных сферах в целом совпадают. Результаты этого исследования легли в основу фильма и одноименного тренинга.
УСПЕХ – ОТ СЛОВА «УСПЕТЬ»
Можно ждать, когда вы приобретете собственный опыт на основе неправильных решений с тем, чтобы принимать правильные решения и добиться успеха. Но зачем? Можно посмотреть фильм, в котором опыт других людей уже суммирован, упакован и дан вам в готовом виде. Вы можете просто пойти по алгоритму, по готовой проторенной дорожке.
К успеху вы непременно придете благодаря самим себе и собственным усилиям. Но успех будет достигнут в результате той информации, которую получите из фильма.

MediaInfo:

General
Complete name : C:\Torrents\Радислав Гандапас - Скрипты успеха.mp4
Format : MPEG-4
Format profile : Base Media / Version 2
Codec ID : mp42
File size : 6.12 GiB
Duration : 1h 0mn
Overall bit rate mode : Variable
Overall bit rate : 14.5 Mbps
Encoded date : UTC 2014-12-10 00:29:16
Tagged date : UTC 2014-12-10 00:47:05
©TIM : 00:01:16:08
©TSC : 25
©TSZ : 1
Video
ID : 1
Format : AVC
Format/Info : Advanced Video Codec
Format profile : Main@L3.2
Format settings, CABAC : Yes
Format settings, ReFrames : 3 frames
Codec ID : avc1
Codec ID/Info : Advanced Video Coding
Duration : 1h 0mn
Bit rate mode : Constant
Bit rate : 15.0 Mbps
Width : 1 280 pixels
Height : 720 pixels
Display aspect ratio : 16:9
Frame rate mode : Constant
Frame rate : 25.000 fps
Standard : PAL
Color space : YUV
Chroma subsampling : 4:2:0
Bit depth : 8 bits
Scan type : Progressive
Bits/(Pixel*Frame) : 0.651
Stream size : 6.04 GiB (99%)
Language : English
Encoded date : UTC 2014-12-10 00:29:16
Tagged date : UTC 2014-12-10 00:29:16
Audio
ID : 2
Format : AAC
Format/Info : Advanced Audio Codec
Format profile : LC
Codec ID : 40
Duration : 1h 0mn
Source duration : 1h 0mn
Bit rate mode : Variable
Bit rate : 192 Kbps
Maximum bit rate : 305 Kbps
Channel(s) : 2 channels
Channel positions : Front: L R
Sampling rate : 48.0 KHz
Compression mode : Lossy
Stream size : 81.7 MiB (1%)
Source stream size : 81.7 MiB (1%)
Language : English
Encoded date : UTC 2014-12-10 00:29:16
Tagged date : UTC 2014-12-10 00:29:16
Скриншоты: Время раздачи: с 17:00 до 21:00 (МСК), до первых 10 скачавших
Скачать .torrent

Для того, чтобы скачать торрент-файл

Радислав Гандапас | Скрипты успеха (2014) HDRip

с нашего сайта, Вам необходимо Войти на сайт под своим логином! Если у Вас ещё нет логина, тогда Вам нужно сначала Зарегистрироваться!

Как скачивать? · Что такое торрент? · Правила, FAQ'и, инструкции

     Добавлен      Похожие темы Размер     S  |  L     Торрент
20-Июн-17 07:42 Алексей Дерябин - 12 эффективных техник энерго-информационного развития (2014) Отв. 0 1015 KB
138 | 0
Скачать .torrent
22-Май-17 06:14 Радислав Гандапас - Формула мотивации (2013) Отв. 0 493 MB
38 | 0
Скачать .torrent
09-Май-17 12:54 Радислав Гандапас - Харизма лидера в бизнесе (2007) Отв. 0 1,15 GB
44 | 0
Скачать .torrent
09-Май-17 12:53 Радислав Гандапас - Полноценная жизнь как бизнес-проект (2014) Отв. 0 2,38 GB
52 | 0
Скачать .torrent
09-Май-17 12:53 Радислав Гандапас - Скрипты успеха (2014) Отв. 0 938 MB
58 | 0
Скачать .torrent
[Профиль] [ЛС]
Показать сообщения:    
Ответить на тему

Радислав Гандапас | Скрипты успеха (2014) HDRip скачать торрент (torrent)

Текущее время: 27-Июн 22:43

Часовой пояс: UTC ± 0



Вы не можете начинать темы
Вы не можете отвечать на сообщения
Вы не можете редактировать свои сообщения
Вы не можете удалять свои сообщения
Вы не можете голосовать в опросах
Вы не можете прикреплять файлы к сообщениям
Вы не можете скачивать файлы