Павел Колесов | Тест-Драйв: лучшие тренинги (+ "2012 Сбыча Мечт: Вызов") (2006-2012) WEBRip скачать торрент (torrent)

Ответить на тему
 
Автор Сообщение

admin ®

Пол: Не указан

Стаж: 1 год 10 месяцев

Сообщений: 459

Создавать темы 13-Ноя-2016 21:17

[Цитировать]

-Павел Колесов | Тест-Драйв: лучшие тренинги (+ "2012 Сбыча Мечт: Вызов") (2006-2012) WEBRip- Автор (режиссер): Павел Колесов
Жанр: Бизнес, НЛП, гипноз, достигаторство
Продолжительность: 187:11:05
Качество видео: WEBRip
Видеокодек: Sorenson Spark(FLV)
Битрейт видео: ~802 kb/s, 25 fps
Размер кадра: 480x272
Аудиокодек: MP3
Битрейт аудио: 128 kb/s (CBR), 2 ch, 44100 Hz
Описание:
Сейчас, перед там купить что-то дорогое, стало модно попробовать что-то бесплатное или совсем дешевое.
В продуктовых магазинах дают попробовать колбасу, сыр, вино, пиво, йогурт. В магазинах парфюмерии вам всегда предложат понюхать разные вкусные ароматы. При покупке авто в авто-салоне каждый уважающий себя авто-салон предложит вам тестовую поездку на машине (тест-драйв).
И я решил предоставить всем моим читателям и клиентам возможность протестировать на качество, "попробовать на зуб" – все мои самые лучшие тренинги и семинары - от Павла Колесова.
Мне хочется, чтобы вы получали отличные результаты. Каждый день. Те результаты, которых вы по-настоящему заслужили. Заслужили тем, что ежедневно работаете над собой, своими отношениями, карьерой, бизнесом, здоровьем, навыками и способностями. Именно для этого я и работаю. Передавая свои знания и навыки клиентам. Помогая внедрить в их жизнь модели, тактики и стратегии, которые гарантируют получение великолепные результаты во всех сферах жизни – если их только начать применять.

Что входит в Тест-Драйв:

Аудио: семинары, тренинги и вебинары (полные версии)
— Бизнес: "15 простых способов увеличить продажи и прибыль в Вашем бизнесе"
— Бизнес: "Эксперт-Руководитель. Часть 0.
Как подбирать лояльных и честных сотрудников:
КТО Вам нужен как сотрудник"
— Бизнес: "Эксперт-Руководитель. Часть 1.
Как подбирать лояльных и честных сотрудников:
Как выстроить систему отбора персонала"
— "2011 Сбыча Мечт: Вызов"
— "2010 Сбыча Мечт"
— "Личная Эффективность 2011.06"
— "НЛП-Практик. Речевое Воздействие 2006"
— Архив записей Мастер-Группы 2010 г. (ВСЕ записи)
— Архив записей Мастер-Группы 2011 г. с января по июнь
+ вырезки из записей больших тренингов, семинаров и вебинаров
— "Путь Достигатора: Везение" (3 дня из 16)
— "Чем в жизни заниматься" (1 дня из 4)
— "Нам Хорошо Вдвоем" (1 день из 5)
— "НЛП-Практик. Речевое Воздействие 2011.06" (2 дня из 4)
— "НЛП-Практик. Самопрограммирование" (2 дня из 4)
— "НЛП-Практик. Скрытое Воздействие" (1 день из 4)
— "Ораторское Искусство: Говори Свободно!" (1 день из 4)
— "Школа Достигаторов. Харизма" (1 день из 3)
— "Школа Достигаторов в Хакасии: Хотелка" (1 день из 9)
— "Эксперт-Руководитель" (0.5 дня из 3)
— "Энергетический Гипноз. Сессия I: Воссоедение с "Глубинным Я"" (1 день из 4)
— "Энергетический Гипноз. Сессия II: Устранение Внутренних Конфликтов" (1 день из 4)
— "Энергетический Гипноз. Сессия III: Построение Великолепного Будущего" (1 день из 4)
— "Эриксоновский Гипноз. Азы Гипноза" (1 день из 4)
— "Эриксоновский Гипноз. Формальные Техники Гипноза" (1 день из 4)
— "Эриксоновский Гипноз. Самогипноз и Самовнушение" (1 день из 4)
— "Эриксоновский Гипноз-Интенсив" (2 дня из 8)
— "Эриксоновский Гипноз. Азы Гипноза" (1 день из 4)
— "Эриксоновский Гипноз. Азы Гипноза" (1 день из 4)
— "Эриксоновский Гипноз. Азы Гипноза" (1 день из 4)
Как разобраться в том, чего хочешь и легко достигнуть желаемого, не прикладывая особых усилий.
Узнаете почему попытка успеть ВСЁ для достижения результатов – это очень плохо.
Разберетесь – что делают реально успешные люди для достижения своих целей, и чего НЕ делают остальные.
Найдете незаметную причину №1 – почему Ваши цели так и остаются на бумаге, не воплощаясь в жизнь.
Откроете самую роковую ошибку, которую допускают более 90% людей при планировании – и как её избежать.
Узнаете 3 простых шага постановки целей, которые знает 1 из 10,000 человек.
Откроете несколько простых и проверенных техник для быстрых и качественных результатов – без всякой ерунды.
Узнаете малоизвестный СЕКРЕТ результативного управления проектами.
Разберетесь – как настроить себя ментально и физически для максимальных и быстрых результатов.
Узнаете маленькую и незаметную ошибку, которая уничтожает весь ваш план так же, как саранча урожай... и как ее избежать.
Поймете – почему одни всегда достигают своих глобальных целей, а остальные не доходят и до половины, и как очень просто Вы можете многократно повторять их успех.
Узнаете о микроскопических деталях, влияющих на успех: какие из них сильно тормозят движение к результатам, а какие ускоряют.
Составите план взлета на следующий год, который позволит вам подняться на недосягаемую для остальных высоту.
Узнаете несколько БРОНЕБОЙНЫХ фишек для достижения целей, о которых я сам узнал, открыл и придумал за прошедший год.
Получите заряд бодрости и вдохновения

Дополнительная информация:

+ раздатки в doc и pdf. И несколько файлов формата webarchive и mmap (не удаляйте, без них некоторые аудио не воспроизводятся).

МедиаИнфо:

1. General
Complete name : Видео-презентации тренингов\nlp-sibir-ru-shkola-dostigatora.flv
Format : Flash Video
File size : 37.8 MiB
Duration : 5mn 24s
Overall bit rate : 978 Kbps
Video
Format : Sorenson Spark
Codec ID : 2
Duration : 5mn 23s
Bit rate : 802 Kbps
Width : 480 pixels
Height : 272 pixels
Display aspect ratio : 16:9
Frame rate mode : Constant
Frame rate : 25.000 fps
Bit depth : 8 bits
Bits/(Pixel*Frame) : 0.246
Stream size : 31.0 MiB (82%)
Audio
Format : MPEG Audio
Format version : Version 1
Format profile : Layer 3
Mode : Joint stereo
Mode extension : MS Stereo
Codec ID : 2
Codec ID/Hint : MP3
Duration : 5mn 24s
Bit rate mode : Constant
Bit rate : 128 Kbps
Channel count : 2 channels
Sampling rate : 44.1 KHz
Compression mode : Lossy
Stream size : 4.94 MiB (13%)
2. General
Complete name : Записи вебинаров (интернет-тренингов)\Личностный Рост\Личная Эффективность 2011.06\pavel-kolesov-ru-lichnaya-effectivnost-2011-06-14.mp3
Format : MPEG Audio
File size : 19.2 MiB
Duration : 42mn 1s
Overall bit rate mode : Constant
Overall bit rate : 64.0 Kbps
Writing library : LAME
Audio
Format : MPEG Audio
Format version : Version 2
Format profile : Layer 3
Mode : Joint stereo
Mode extension : MS Stereo
Duration : 42mn 1s
Bit rate mode : Constant
Bit rate : 64.0 Kbps
Channel count : 2 channels
Sampling rate : 24.0 KHz
Compression mode : Lossy
Stream size : 19.2 MiB (100%)
Writing library : LAME
Скриншоты:

Время раздачи: С 11.00 до 23.00, пн-пт.
Скачать .torrent

Для того, чтобы скачать торрент-файл

Павел Колесов | Тест-Драйв: лучшие тренинги (+ "2012 Сбыча Мечт: Вызов") (2006-2012) WEBRip

с нашего сайта, Вам необходимо Войти на сайт под своим логином! Если у Вас ещё нет логина, тогда Вам нужно сначала Зарегистрироваться!

Как скачивать? · Что такое торрент? · Правила, FAQ'и, инструкции

     Добавлен      Похожие темы Размер     S  |  L     Торрент
15-Янв-17 11:31 Винтер-Астахова - Техника входа в состояния соасн (2012) Отв. 0 99 MB
1 | 0
Скачать .torrent
11-Янв-17 06:39 Ацилут - Астрология (тест-драйв) (2016) Отв. 0 908 MB
1 | 0
Скачать .torrent
03-Дек-16 21:04 Зинкевич-Евстигнеева - Мастер сказок (+ 50 карточек) (2012) Отв. 0 136 MB
1 | 0
Скачать .torrent
20-Ноя-16 16:04 Гордеева - Как перейти от знакомств к серьезным отношениям (2012) Отв. 0 208 MB
1 | 0
Скачать .torrent
17-Ноя-16 23:18 Бикметов - Вторая половинка_ доставка через месяц (2012) Отв. 0 190 MB
1 | 0
Скачать .torrent
[Профиль] [ЛС]
Показать сообщения:    
Ответить на тему

Павел Колесов | Тест-Драйв: лучшие тренинги (+ "2012 Сбыча Мечт: Вызов") (2006-2012) WEBRip скачать торрент (torrent)

Текущее время: 18-Янв 05:56

Часовой пояс: UTC ± 0



Вы не можете начинать темы
Вы не можете отвечать на сообщения
Вы не можете редактировать свои сообщения
Вы не можете удалять свои сообщения
Вы не можете голосовать в опросах
Вы не можете прикреплять файлы к сообщениям
Вы не можете скачивать файлы