Денис Бурхаев | Видеосеминар «Научись понимать женщин! Общая модель женской психики» (2013) CamRip скачать торрент (torrent)

Ответить на тему
 
Автор Сообщение

admin ®

Пол: Не указан

Стаж: 1 год 11 месяцев

Сообщений: 459

Создавать темы 13-Ноя-2016 21:19

[Цитировать]

-Денис Бурхаев | Видеосеминар «Научись понимать женщин! Общая модель женской психики» (2013) CamRip- Автор (режиссер): Денис Бурхаев
Жанр: Психология
Продолжительность: 09:08:04
Качество видео: CamRip
Видеокодек: AVC
Битрейт видео: ~1046 Kbps
Размер кадра: 1280x720
Аудиокодек: AAC 2.0
Битрейт аудио: 192 Kbps, 2ch, 44100 Hz
Описание:
Видеосеминар «Научись понимать женщин! Общая модель женской психики»
для айтишников, для тех, кто воспитывался мамкой, для тех, кому кажется, что они совершенно не понимают женщин и кого женщины постоянно используют

Mediainfo

Format : MPEG-4
Format profile : Base Media / Version 2
Codec ID : mp42
File size : 947 MiB
Duration : 1h 46mn
Overall bit rate mode : Variable
Overall bit rate : 1 241 Kbps
Encoded date : UTC 2013-11-01 07:52:29
Tagged date : UTC 2013-11-01 07:52:29
gsst : 0
gstd : 6400580
gssd : B4A7DDAA7MH1383402310544882
gshh : r7---sn-4g57kued.googlevideo.com
Video
ID : 1
Format : AVC
Format/Info : Advanced Video Codec
Format profile : High@L3.1
Format settings, CABAC : Yes
Format settings, ReFrames : 1 frame
Format settings, GOP : M=1, N=60
Codec ID : avc1
Codec ID/Info : Advanced Video Coding
Duration : 1h 46mn
Bit rate : 1 046 Kbps
Maximum bit rate : 2 351 Kbps
Width : 1 280 pixels
Height : 720 pixels
Display aspect ratio : 16:9
Frame rate mode : Constant
Frame rate : 25.000 fps
Color space : YUV
Chroma subsampling : 4:2:0
Bit depth : 8 bits
Scan type : Progressive
Bits/(Pixel*Frame) : 0.045
Stream size : 798 MiB (84%)
Tagged date : UTC 2013-11-01 07:56:10
Audio
ID : 2
Format : AAC
Format/Info : Advanced Audio Codec
Format profile : LC
Codec ID : 40
Duration : 1h 46mn
Bit rate mode : Variable
Bit rate : 192 Kbps
Maximum bit rate : 201 Kbps
Channel(s) : 2 channels
Channel positions : Front: L R
Sampling rate : 44.1 KHz
Compression mode : Lossy
Stream size : 146 MiB (15%)
Title : IsoMedia File Produced by Google, 5-11-2011
Encoded date : UTC 2013-11-01 07:54:32
Tagged date : UTC 2013-11-01 07:56:10
Скриншоты:
Время раздачи: 14:00-00:00
Скачать .torrent

Для того, чтобы скачать торрент-файл

Денис Бурхаев | Видеосеминар «Научись понимать женщин! Общая модель женской психики» (2013) CamRip

с нашего сайта, Вам необходимо Войти на сайт под своим логином! Если у Вас ещё нет логина, тогда Вам нужно сначала Зарегистрироваться!

Как скачивать? · Что такое торрент? · Правила, FAQ'и, инструкции

     Добавлен      Похожие темы Размер     S  |  L     Торрент
10-Фев-17 07:36 Бурхаев - Введение в Бардо Тхедол (2016) Отв. 0 372 MB
1 | 0
Скачать .torrent
04-Дек-16 20:48 Питеркина - Сексуальные тайны женщин, которых никогда не бросают (2014) Отв. 0 649 MB
1 | 0
Скачать .torrent
13-Ноя-16 21:31 Денис Борисов | Я 2.0. Твое обновление (2015) PCRec, PDF [H.264/720p] Отв. 0 788 MB
24 | 1
Скачать .torrent
13-Ноя-16 21:30 Евгений Спирица | Как читать мысли мужчин и женщин (2013) CamRip Отв. 0 986 MB
7 | 0
Скачать .torrent
[Профиль] [ЛС]
Показать сообщения:    
Ответить на тему

Денис Бурхаев | Видеосеминар «Научись понимать женщин! Общая модель женской психики» (2013) CamRip скачать торрент (torrent)

Текущее время: 23-Фев 21:03

Часовой пояс: UTC ± 0



Вы не можете начинать темы
Вы не можете отвечать на сообщения
Вы не можете редактировать свои сообщения
Вы не можете удалять свои сообщения
Вы не можете голосовать в опросах
Вы не можете прикреплять файлы к сообщениям
Вы не можете скачивать файлы