Евгений Спирица | Как читать мысли мужчин и женщин (2013) CamRip скачать торрент (torrent)

Ответить на тему
 
Автор Сообщение

admin ®

Пол: Не указан

Стаж: 2 года 2 месяца

Сообщений: 626

Создавать темы 13-Ноя-2016 21:30

[Цитировать]

- Евгений Спирица | Как читать мысли мужчин и женщин (2013) CamRip - Автор (режиссер): Евгений Спирица
Производство: Международная академия исследования лжи
Жанр: Психология общения, межличностные коммуникации
Описание:
Если Вы поймете, как устроен человек, как он мыслит, то человек станет для Вас читабельным.
Мужчины и женщины — кому лучше удается обман? А кто лучше распознает ложь? Почему?
Такое кажется невозможным. Ведь партнер (неважно какой партнер — по бизнесу или семье) почему-то старается навязать свою точку зрения.
Он (она) не понимает Вас. А ведь Вы так все доступно ему (ей) объяснили. Но он (она) все равно не понимает. Хотя человек не глупый.
Продолжительность: 02:11:54
Качество видео: CamRip
Видео: Xvid, 720x480, ~768 Kbps
Аудио: MP3, 2 ch, 121 Kbps, VBR

Mediainfo:

General
Complete name                            : C:\Torrents\Спирица Евгений - Как читать мысли мужчин и женщин (2013)\1.avi
Format                                   : AVI
Format/Info                              : Audio Video Interleave
File size                                : 190 MiB
Duration                                 : 29mn 27s
Overall bit rate mode                    : Variable
Overall bit rate                         : 901 Kbps
Writing application                      : MEncoder Sherpya-SVN-r30075-4.2.5
Writing library                          : MPlayer
Video
ID                                       : 0
Format                                   : MPEG-4 Visual
Format profile                           : Simple@L3
Format settings, BVOP                    : No
Format settings, QPel                    : No
Format settings, GMC                     : No warppoints
Format settings, Matrix                  : Default (H.263)
Codec ID                                 : XVID
Codec ID/Hint                            : XviD
Duration                                 : 29mn 27s
Bit rate                                 : 768 Kbps
Width                                    : 720 pixels
Height                                   : 480 pixels
Display aspect ratio                     : 3:2
Original display aspect ratio            : 3:2
Frame rate                               : 25.000 fps
Standard                                 : NTSC
Color space                              : YUV
Chroma subsampling                       : 4:2:0
Bit depth                                : 8 bits
Scan type                                : Progressive
Compression mode                         : Lossy
Bits/(Pixel*Frame)                       : 0.089
Stream size                              : 162 MiB (85%)
Writing library                          : XviD 1.2.1 (UTC 2008-12-04)
Audio
ID                                       : 1
Format                                   : MPEG Audio
Format version                           : Version 1
Format profile                           : Layer 3
Mode                                     : Joint stereo
Mode extension                           : MS Stereo
Codec ID                                 : 55
Codec ID/Hint                            : MP3
Duration                                 : 29mn 27s
Bit rate mode                            : Variable
Bit rate                                 : 121 Kbps
Channel(s)                               : 2 channels
Sampling rate                            : 44.1 KHz
Compression mode                         : Lossy
Stream size                              : 25.4 MiB (13%)
Alignment                                : Aligned on interleaves
Interleave, duration                     : 26 ms (0.65 video frame)
Interleave, preload duration             : 553 ms

Дополнительная информация:

Программа:
- Как человек мыслит, основные модели мышления;
- Откуда берутся эмоции;
- Эмоциональная модель Плутчика и ее отражение на лице человека;
- Как с помощью эмоции удержать человека;
- Как с помощью эмоции разрушить психику человека;
- 3 основные эмоционально-манипулятивные модели;
- 5 основных способов разрушить любые отношения и сделать себя несчастным;
- Как мыслит женщина;
- Как мыслит мужчина;
- Почему мы не понимаем друг друга или конфликтная составляющая коммуникации;
- Взорви сознание партнеру и умри несчастным, бедным и одиноким;
- Правильные эмоции = счастье.
Этот семинар даст Вам ответы на многие вопросы по манипулированию в отношениях между двумя людьми и не важно кто они — мужья, жены или начальники.
Скриншоты:
Евгений Спирица в PsyTorВремя раздачи: с 20:00 до 23:00, до 5 сидов
Скачать .torrent

Для того, чтобы скачать торрент-файл

Евгений Спирица | Как читать мысли мужчин и женщин (2013) CamRip

с нашего сайта, Вам необходимо Войти на сайт под своим логином! Если у Вас ещё нет логина, тогда Вам нужно сначала Зарегистрироваться!

Как скачивать? · Что такое торрент? · Правила, FAQ'и, инструкции

     Добавлен      Похожие темы Размер     S  |  L     Торрент
25-Апр-17 06:48 Красиков - Социофобия (2013) Отв. 0 1,21 GB
2 | 0
Скачать .torrent
18-Апр-17 08:16 Усова - Убеждения - столпы твоей жизни (2013) Отв. 0 34 MB
2 | 0
Скачать .torrent
13-Апр-17 08:32 Усова - Твой храм (2013) Отв. 0 34 MB
2 | 0
Скачать .torrent
09-Апр-17 18:59 Игорь Серов | Читать человека как книгу (2012) [MP3, PDF] Отв. 0 173 MB
84 | 0
Скачать .torrent
09-Апр-17 18:42 Дэвид Копланд, Рон Луис | Классификация мужчин по видам и отрядам (2004) [PDF] Отв. 0 256 MB
64 | 0
Скачать .torrent
[Профиль] [ЛС]
Показать сообщения:    
Ответить на тему

Евгений Спирица | Как читать мысли мужчин и женщин (2013) CamRip скачать торрент (torrent)

Текущее время: 30-Апр 14:53

Часовой пояс: UTC ± 0



Вы не можете начинать темы
Вы не можете отвечать на сообщения
Вы не можете редактировать свои сообщения
Вы не можете удалять свои сообщения
Вы не можете голосовать в опросах
Вы не можете прикреплять файлы к сообщениям
Вы не можете скачивать файлы