Денис Борисов | Я 2.0. Твое обновление (2015) PCRec, PDF [H.264/720p] скачать торрент (torrent)

Ответить на тему
 
Автор Сообщение

admin ®

Пол: Не указан

Стаж: 2 года 1 месяц

Сообщений: 459

Создавать темы 13-Ноя-2016 21:31

[Цитировать]

- Денис Борисов | Я 2.0. Твое обновление (2015) PCRec, PDF [H.264/720p]- Автор (режиссер): Денис Борисов
Жанр: Саморазвитие
Описание:
Я 2.0 - это инструкция как трансформировать свою личность на новый, более продвинутый, уровень. Вы хотите получать от жизни желаемое? Именно это и называется быть счастливым. Именно на это и направлено данное пособие. В чем его суть?
В РЕЗУЛЬТАТЕ! Вам будет дано множество КОНКРЕТНЫХ ШАГОВ, которые позволят вам стать ДРУГИМ в СЛЕДУЮЩЕМ ГОДУ! То что вы представляете сейчас, это Я 1.0, а то во что вы превратитесь будет лучше, счастливее, увереннее, богаче. Это будет Я 2.0.
В материале предоставлено полное практическое руководство от планирования и борьбы с страхами, до поощрений себя за достижения. Конкретные инструменты и способы. От вас требуется только ЖЕЛАНИЕ СТАТЬ ЛУЧШЕ! ЖЕЛАНИЕ СТАТЬ УСПЕШНЫМ! ЖЕЛАНИЕ СТАТЬ ДРУГИМ!
В Индии часто можно наблюдать картинку как огромного слона привязывают к тонюсенькому колышку и он смирно стоит, даже не пытаясь освободиться. Почему так? Дело в том, что будучи маленьким слоненком животное безрезультатно пробовало на прочность этот колышек. А потом привыкло и смерилось что выбраться не получиться. Взрослый слон может легко уйти от этого колышка куда угодно (у него достаточно для этого сил), но он даже не пытается, потому что с детства СЛОН ВЕРИТ В ТО, ЧТО ЭТО НЕВОЗМОЖНО!
К чему я это рассказываю? К тому, что ВСЕ ВОЗМОЖНО! ВСЕ В ВАШЕЙ ГОЛОВЕ! Любые свершения и изменения вашей личности вам ДОСТУПНЫ! Проблемы находятся исключительно в вашей голове, в области страхов и сомнений. ЦЕЛЬ ЭТОГО МАТЕРИАЛА - СТАТЬ ДРУГИМ ЧЕЛОВЕКОМ! Более счастливым и совершенным на уровне восприятия себя любимого. Стать ЧЕЛОВЕКОМ 2.0 (ОБНОВЛЕННЫМ).
Продолжительность: 00:55:18
Качество видео: PCRec
Видео: AVC/H.264, 1280x720, ~1478-2067 kbps
Аудио: AAC, 2 ch, 192 kbps, VBR

Mediainfo:

Общее
Полное имя                               : C:\Я 2.0. ТВОЕ ОБНОВЛЕНИЕ - 2015\Ваши Потребности и ЦЕЛИ в жизни. Трансформация личности. Я 2.0.MP4
Формат                                   : MPEG-4
Профиль формата                          : Base Media / Version 2
Идентификатор кодека                     : mp42
Размер файла                             : 313 Мбайт
Продолжительность                        : 26 м.
Режим общего битрейта                    : Переменный
Общий поток                              : 1672 Кбит/сек
Дата кодирования                         : UTC 2015-11-30 04:51:58
Дата пометки                             : UTC 2015-11-30 04:51:58
gsst                                     : 0
gstd                                     : 1569481
gssd                                     : BADC230E7
gshh                                     : r7---sn-3c27ln7y.googlevideo.com
Видео
Идентификатор                            : 1
Формат                                   : AVC
Формат/Информация                        : Advanced Video Codec
Профиль формата                          : [url=mailto:High@L3.1]High@L3.1[/url]
Параметр CABAC формата                   : Да
Параметр ReFrames формата                : 1 кадр
Идентификатор кодека                     : avc1
Идентификатор кодека/Информация          : Advanced Video Coding
Продолжительность                        : 26 м.
Битрейт                                  : 1478 Кбит/сек
Максимальный битрейт                     : 4223 Кбит/сек
Ширина                                   : 1280 пикселей
Высота                                   : 720 пикселей
Соотношение сторон                       : 16:9
Режим частоты кадров                     : Постоянный
Частота кадров                           : 29,970 кадров/сек
Цветовое пространство                    : YUV
Субдискретизация насыщенности            : 4:2:0
Битовая глубина                          : 8 бит
Тип развёртки                            : Прогрессивная
Бит/(Пиксели*Кадры)                      : 0.054
Размер потока                            : 276 Мбайт (88%)
Дата пометки                             : UTC 2015-11-30 04:52:16
Цветовой диапазон                        : Limited
Основные цвета                           : BT.709
Характеристики трансфера                 : BT.709
Коэффициенты матрицы                     : BT.709
Аудио
Идентификатор                            : 2
Формат                                   : AAC
Формат/Информация                        : Advanced Audio Codec
Профиль формата                          : LC
Идентификатор кодека                     : 40
Продолжительность                        : 26 м.
Вид битрейта                             : Переменный
Битрейт                                  : 192 Кбит/сек
Максимальный битрейт                     : 202 Кбит/сек
Каналы                                   : 2 канала
Расположение каналов                     : Front: L R
Частота                                  : 44,1 КГц
Метод сжатия                             : С потерями
Размер потока                            : 35,9 Мбайт (11%)
Заголовок                                : IsoMedia File Produced by Google, 5-11-2011
Дата кодирования                         : UTC 2015-11-30 04:52:09
Дата пометки                             : UTC 2015-11-30 04:52:16
Общее
Полное имя                               : C:\Я 2.0. ТВОЕ ОБНОВЛЕНИЕ - 2015\Я 2.0 - 1-й УРОВЕНЬ (как стать богатым, биологические потребности).MP4
Формат                                   : MPEG-4
Профиль формата                          : Base Media / Version 2
Идентификатор кодека                     : mp42
Размер файла                             : 472 Мбайт
Продолжительность                        : 29 м.
Режим общего битрейта                    : Переменный
Общий поток                              : 2262 Кбит/сек
Дата кодирования                         : UTC 2015-12-02 15:18:26
Дата пометки                             : UTC 2015-12-02 15:18:26
gsst                                     : 0
gstd                                     : 1749366
gssd                                     : BADC21509
gshh                                     : r9---sn-3c27ln7r.googlevideo.com
Видео
Идентификатор                            : 1
Формат                                   : AVC
Формат/Информация                        : Advanced Video Codec
Профиль формата                          : [url=mailto:High@L3.1]High@L3.1[/url]
Параметр CABAC формата                   : Да
Параметр ReFrames формата                : 1 кадр
Параметр GOP формата                     : M=1, N=60
Идентификатор кодека                     : avc1
Идентификатор кодека/Информация          : Advanced Video Coding
Продолжительность                        : 29 м.
Битрейт                                  : 2067 Кбит/сек
Максимальный битрейт                     : 4690 Кбит/сек
Ширина                                   : 1280 пикселей
Высота                                   : 720 пикселей
Соотношение сторон                       : 16:9
Режим частоты кадров                     : Постоянный
Частота кадров                           : 29,970 кадров/сек
Цветовое пространство                    : YUV
Субдискретизация насыщенности            : 4:2:0
Битовая глубина                          : 8 бит
Тип развёртки                            : Прогрессивная
Бит/(Пиксели*Кадры)                      : 0.075
Размер потока                            : 431 Мбайт (91%)
Дата пометки                             : UTC 2015-12-02 15:19:30
Цветовой диапазон                        : Limited
Основные цвета                           : BT.709
Характеристики трансфера                 : BT.709
Коэффициенты матрицы                     : BT.709
Аудио
Идентификатор                            : 2
Формат                                   : AAC
Формат/Информация                        : Advanced Audio Codec
Профиль формата                          : LC
Идентификатор кодека                     : 40
Продолжительность                        : 29 м.
Вид битрейта                             : Переменный
Битрейт                                  : 192 Кбит/сек
Максимальный битрейт                     : 203 Кбит/сек
Каналы                                   : 2 канала
Расположение каналов                     : Front: L R
Частота                                  : 44,1 КГц
Метод сжатия                             : С потерями
Размер потока                            : 40,0 Мбайт (8%)
Заголовок                                : IsoMedia File Produced by Google, 5-11-2011
Дата кодирования                         : UTC 2015-12-02 15:18:59
Дата пометки                             : UTC 2015-12-02 15:19:30
Скриншоты:

Дополнительные скриншоты:

Время раздачи: 24/7 (круглосуточно)
Скачать .torrent

Для того, чтобы скачать торрент-файл

Денис Борисов | Я 2.0. Твое обновление (2015) PCRec, PDF [H.264/720p]

с нашего сайта, Вам необходимо Войти на сайт под своим логином! Если у Вас ещё нет логина, тогда Вам нужно сначала Зарегистрироваться!

Как скачивать? · Что такое торрент? · Правила, FAQ'и, инструкции

     Добавлен      Похожие темы Размер     S  |  L     Торрент
26-Мар-17 09:26 Лобанов - Таро гномов. Бизнес-ответы (2015) Отв. 0 28 MB
1 | 0
Скачать .torrent
22-Мар-17 08:57 Полынь - Сакральные видения для избранных (2015) Отв. 0 26 MB
1 | 0
Скачать .torrent
18-Мар-17 09:37 Мандрагора - И сказал мне демон (2015) Отв. 0 107 MB
0 | 1
Скачать .torrent
17-Мар-17 07:09 Газизова - Под крыльями ангелов (2015) Отв. 0 908 MB
1 | 0
Скачать .torrent
16-Мар-17 07:18 Смолина - Феншуй для кошелька (2015) Отв. 0 624 MB
1 | 0
Скачать .torrent
[Профиль] [ЛС]
Показать сообщения:    
Ответить на тему

Денис Борисов | Я 2.0. Твое обновление (2015) PCRec, PDF [H.264/720p] скачать торрент (torrent)

Текущее время: 28-Мар 21:39

Часовой пояс: UTC ± 0



Вы не можете начинать темы
Вы не можете отвечать на сообщения
Вы не можете редактировать свои сообщения
Вы не можете удалять свои сообщения
Вы не можете голосовать в опросах
Вы не можете прикреплять файлы к сообщениям
Вы не можете скачивать файлы