Виктор Орлов | Шаблон Стагнера (2011) PCRec [H.264] скачать торрент (torrent)

Ответить на тему
 
Автор Сообщение

admin ®

Пол: Не указан

Стаж: 2 года 2 месяца

Сообщений: 626

Создавать темы 13-Ноя-2016 21:31

[Цитировать]

- Виктор Орлов | Шаблон Стагнера (2011) PCRec [H.264] - Автор (режиссер): Виктор Орлов
Жанр: Психология
Описание:
Профессиональный курс мгновенного холодного" чтения людей
Предположим, что вам нужно как можно быстрее войти вконтакт с человеком,
запасть ему в душу, вызвать изумленную симпатию или восторг – причем надолго.
Для этого есть инструмент: Шаблон Стагнера –Универсальная Речевая Подстройка.
Что это такое и как оно работает?
Шаблон Стагнера – это хитроумная, изощренная и гениальная копирайтинговая стратегия и технология общения.
Она может быть использована (после несложного изучения) с грандиозными результатами
- ЛЮБЫМ (даже если он полный ноль в копирайтинге, эзотерике и технологиях общения) -
для того, чтобы вызвать у незнакомой девушки, парня, читателей блога или слушателей
аудио-видео каста ощущение полного взаимопонимания и сопереживания.
C помощью этой технологии (которую до недавних пор знали лишь высококлассные гадалки,
маги и предсказатели) вы легко можете рассказать о любом, совершенно незнакомом вам человеке,
такие вещи, что он будет до самых гениталий изумлен вашей способностью проникать в потаенные
уголки его души.
Шаблон Стагнера – это величайший (и лучший) из методов создания быстрого ДОВЕРИЯ между вами и
вашей аудиторией.
Продолжительность: 00:55:58
Качество видео: PCRec
Видео: AVC/H.264, 508x384, ~215 kbps
Аудио: AAC, 1 ch, 48,0 kbps, CBR

Mediainfo:

Общее
Полное имя                               : C:\Раздачи\Виктор Орлов Шаблон Стагнера\Виктор Орлов Шаблон Стагнера.mov
Формат                                   : MPEG-4
Профиль формата                          : QuickTime
Идентификатор кодека                     : qt   2005.03 (qt  )
Размер файла                             : 107 Мбайт
Продолжительность                        : 55 м.
Общий поток                              : 266 Кбит/сек
Дата кодирования                         : UTC 2011-11-26 06:51:18
Дата пометки                             : UTC 2011-11-26 06:51:23
Библиотека кодирования                   : Apple QuickTime
com.apple.quicktime.software             : ScreenFlow
Видео
Идентификатор                            : 2
Формат                                   : AVC
Формат/Информация                        : Advanced Video Codec
Профиль формата                          : Main@L3
Параметр CABAC формата                   : Нет
Параметр ReFrames формата                : 2 кадра
Идентификатор кодека                     : avc1
Идентификатор кодека/Информация          : Advanced Video Coding
Продолжительность                        : 55 м.
Битрейт                                  : 215 Кбит/сек
Ширина                                   : 508 пикселей
Высота                                   : 384 пикселя
Соотношение сторон                       : 4:3
Режим частоты кадров                     : Постоянный
Частота кадров                           : 30,000 кадров/сек
Цветовое пространство                    : YUV
Субдискретизация насыщенности            : 4:2:0
Битовая глубина                          : 8 бит
Тип развёртки                            : Прогрессивная
Бит/(Пиксели*Кадры)                      : 0.037
Размер потока                            : 86,1 Мбайт (81%)
Язык                                     : English
Дата кодирования                         : UTC 2011-11-26 06:42:26
Дата пометки                             : UTC 2011-11-26 06:51:23
Цветовой диапазон                        : Limited
Основные цвета                           : BT.601 NTSC
Характеристики трансфера                 : BT.709
Коэффициенты матрицы                     : BT.601
Аудио
Идентификатор                            : 1
Формат                                   : AAC
Формат/Информация                        : Advanced Audio Codec
Профиль формата                          : LC
Идентификатор кодека                     : 40
Продолжительность                        : 55 м.
Продолжительность оригинала              : 55 м.
Вид битрейта                             : Постоянный
Битрейт                                  : 48,0 Кбит/сек
Каналы                                   : 1 канал
Расположение каналов                     : Front: C
Частота                                  : 32,0 КГц
Частота кадров                           : 31,250 кадров/сек (1024 spf)
Метод сжатия                             : С потерями
Размер потока                            : 19,5 Мбайт (18%)
Размер потока оригинала                  : 19,5 Мбайт (18%)
Язык                                     : English
Дата кодирования                         : UTC 2011-11-26 06:42:26
Дата пометки                             : UTC 2011-11-26 06:51:23

Дополнительная информация:

Изначально курс состоит из 1 видео-файла и 13 файлов в pdf-формате. В этом релизе 12pdf соединены в 1, созданы аналогичные в docx и epub формате. 13 файл (Джон Гриндер Трансформация) .
Скриншоты:
Время раздачи: С 13:00 - 21:00 . До 10 скачавших .
Скачать .torrent

Для того, чтобы скачать торрент-файл

Виктор Орлов | Шаблон Стагнера (2011) PCRec [H.264]

с нашего сайта, Вам необходимо Войти на сайт под своим логином! Если у Вас ещё нет логина, тогда Вам нужно сначала Зарегистрироваться!

Как скачивать? · Что такое торрент? · Правила, FAQ'и, инструкции

     Добавлен      Похожие темы Размер     S  |  L     Торрент
09-Апр-17 18:57 Лууле Виилма | Боль в твоем сердце (2011) [MP3] Отв. 0 647 MB
12 | 0
Скачать .torrent
09-Апр-17 18:57 Лууле Виилма | Без зла в себе (2011) [MP3] Отв. 0 533 MB
14 | 0
Скачать .torrent
09-Апр-17 18:56 Лууле Виилма | Прощение подлинное и мнимое (2011) [MP3] Отв. 0 366 MB
14 | 0
Скачать .torrent
09-Апр-17 17:59 Виктор Франкл | Логотерапия и экзистенциальный анализ. Статьи и лекции (2017) [EPUB, FB2, MOBI] Отв. 0 3 MB
44 | 18
Скачать .torrent
09-Апр-17 17:46 Анна Данилова | Манипулирование словом в средствах массовой информации (2011) [FB2, EPUB] Отв. 0 4 MB
64 | 12
Скачать .torrent
[Профиль] [ЛС]
Показать сообщения:    
Ответить на тему

Виктор Орлов | Шаблон Стагнера (2011) PCRec [H.264] скачать торрент (torrent)

Текущее время: 30-Апр 14:53

Часовой пояс: UTC ± 0



Вы не можете начинать темы
Вы не можете отвечать на сообщения
Вы не можете редактировать свои сообщения
Вы не можете удалять свои сообщения
Вы не можете голосовать в опросах
Вы не можете прикреплять файлы к сообщениям
Вы не можете скачивать файлы