Ричард Бэндлер | «Секреты успеха» от основателя НЛП Ричарда Бэндлера (2014) DVDRip [EN / RU Sub] скачать торрент (torrent)

Ответить на тему
 
Автор Сообщение

admin ®

Пол: Не указан

Стаж: 2 года 6 месяцев

Сообщений: 791

Создавать темы 13-Ноя-2016 21:32

[Цитировать]

- Ричард Бэндлер | «Секреты успеха» от основателя НЛП Ричарда Бэндлера (2014) DVDRip [EN / RU Sub]- Автор (режиссер): Ричард Бэндлер
Производство: NLP Life Training
Жанр: Практическая психология, Личностный рост
Описание:
В этом новом ограниченном издании на ДВД «Секреты успеха», Ричард Бендлер моделирует четырех невероятно успешных людей, у которых вы научитесь, благодаря которым вдохновитесь, и чьи навыки сможете использовать в вашей собственной жизни.?
Четыре звезды у которых он берет интервью:
- Знаменитый шеф-повар и владелец сети ресторанов Альдо Зилли.
- Золотой медалист олимпийских игр по бегу Иван Томас.
- Бизнесмен - мультимиллионер Эндрю Моррис.
- Известный британский актер Кристофер Эллисон.
И, если вы когда-либо задавались вопросом, как Ричард пришел к тем мощным техникам НЛП, которым он учит на своих семинарах, в книгах и DVD-дисках, приготовьтесь – все секреты будут раскрыты!
В «Секретах успеха» вы увидите, как Ричард моделирует каждого из этих потрясающе успешных людей, извлекая из них мощные фишки, которые вы найдете невероятно полезными в вашей жизни.
Продолжительность: 02:04:44
Качество видео: DVDRip
Язык: Английский
Субтитры: Русские (вшитые, не отключаемые)
Видео: Xvid, 688x384, ~1 903 Kbps
Аудио: MP3, 2 ch, 128 Kbps, CBR

Mediainfo:

General
Complete name                            : C:\Torrents\Секреты Успеха с Ричардом Бэндлером\01. Альдо Зилли.avi
Format                                   : AVI
Format/Info                              : Audio Video Interleave
File size                                : 386 MiB
Duration                                 : 26mn 29s
Overall bit rate                         : 2 040 Kbps
Writing application                      : FairUse Wizard - http://fairusewizard.com
Writing library                          : VirtualDub build 32706/release
Video
ID                                       : 0
Format                                   : MPEG-4 Visual
Format profile                           : Advanced Simple@L5
Format settings, BVOP                    : 2
Format settings, QPel                    : No
Format settings, GMC                     : No warppoints
Format settings, Matrix                  : Default (H.263)
Muxing mode                              : Packed bitstream
Codec ID                                 : XVID
Codec ID/Hint                            : XviD
Duration                                 : 26mn 29s
Bit rate                                 : 1 903 Kbps
Width                                    : 688 pixels
Height                                   : 384 pixels
Display aspect ratio                     : 16:9
Frame rate                               : 25.000 fps
Color space                              : YUV
Chroma subsampling                       : 4:2:0
Bit depth                                : 8 bits
Scan type                                : Progressive
Compression mode                         : Lossy
Bits/(Pixel*Frame)                       : 0.288
Stream size                              : 360 MiB (93%)
Writing library                          : XviD 73
Audio
ID                                       : 1
Format                                   : MPEG Audio
Format version                           : Version 1
Format profile                           : Layer 3
Mode                                     : Joint stereo
Mode extension                           : MS Stereo
Codec ID                                 : 55
Codec ID/Hint                            : MP3
Duration                                 : 26mn 28s
Bit rate mode                            : Constant
Bit rate                                 : 128 Kbps
Channel(s)                               : 2 channels
Sampling rate                            : 48.0 KHz
Compression mode                         : Lossy
Stream size                              : 24.2 MiB (6%)
Alignment                                : Aligned on interleaves
Interleave, duration                     : 40 ms (1.00 video frame)
Interleave, preload duration             : 504 ms
Writing library                          : LAME3.97
Encoding settings                        : -m j -V 4 -q 2 -lowpass 17 -b 128

Дополнительная информация:

Среди многих секретов успеха этого бокс-сета вы откроете для себя:?
- почему самые успешные люди так часто не в состоянии осознать их собственный успех;
- как чрезвычайно творческие люди генерируют образы в своем уме, которые неумолимо притягивают к себе;
- как мысленное многократное повторение может привести к совершенству поведения;
- как быть источником вдохновения для других;
- что значит быть человеком в глазах других людей;
- как правильная мотивация становится ключом к обучению;
- в чем заключается большой секрет успешных людей в получении того, что они хотят - и как вы тоже можете использовать эти секреты в вашей жизни.
The Secrets of Success Limited Edition DVD Box Set
«Секреты успеха» вышли ограниченным тиражом в 500 экземпляров.
Скриншоты:
Время раздачи: с 20:00 до 23:00 (до появления первых 3-5 скачавших)
Скачать .torrent

Для того, чтобы скачать торрент-файл

Ричард Бэндлер | «Секреты успеха» от основателя НЛП Ричарда Бэндлера (2014) DVDRip [EN / RU Sub]

с нашего сайта, Вам необходимо Войти на сайт под своим логином! Если у Вас ещё нет логина, тогда Вам нужно сначала Зарегистрироваться!

Как скачивать? · Что такое торрент? · Правила, FAQ'и, инструкции

     Добавлен      Похожие темы Размер     S  |  L     Торрент
02-Сен-17 10:24 Ричард Вайзман - Разорви шаблон! (2013) Отв. 0 4 MB
103 | 22
Скачать .torrent
02-Сен-17 10:23 Алексей Сорокин - Мастер словесных разборок. Секреты победы в уличных и бытовых конфликтах (2013) Отв. 0 6 MB
196 | 46
Скачать .torrent
02-Сен-17 10:01 Е. Шапаренко, Г. Фальковский - Рефлексы богатства и успеха (2017) Отв. 0 2 MB
81 | 6
Скачать .torrent
02-Сен-17 10:01 Лиза Питеркина - Даосские секреты женской сексуальности (2017) Отв. 0 2 MB
50 | 8
Скачать .torrent
02-Сен-17 09:57 Ричард Рисо, Расс Хадсон - Мудрость Эннеаграммы (2010) Отв. 0 29 MB
34 | 0
Скачать .torrent
[Профиль] [ЛС]
Показать сообщения:    
Ответить на тему

Ричард Бэндлер | «Секреты успеха» от основателя НЛП Ричарда Бэндлера (2014) DVDRip [EN / RU Sub] скачать торрент (torrent)

Текущее время: 22-Сен 10:00

Часовой пояс: UTC ± 0



Вы не можете начинать темы
Вы не можете отвечать на сообщения
Вы не можете редактировать свои сообщения
Вы не можете удалять свои сообщения
Вы не можете голосовать в опросах
Вы не можете прикреплять файлы к сообщениям
Вы не можете скачивать файлы