Радислав Гандапас | Естественный отбор: эволюция лидера (2014) CamRip [H.264] скачать торрент (torrent)

Ответить на тему
 
Автор Сообщение

admin ®

Пол: Не указан

Стаж: 1 год 10 месяцев

Сообщений: 459

Создавать темы 13-Ноя-2016 21:34

[Цитировать]

- Радислав Гандапас | Естественный отбор: эволюция лидера (2014) CamRip [H.264] - Автор (режиссер): Радислав Гандапас
Жанр: Лидерство, Бизнес, Финансы
Описание:
Закрытая лекция Радислава Гандапаса. В продаже отсутствует. Развитие искусства управления. Стимулирование и его значение в жизни лидера.
Людей можно разделить на аутсайдеров и лидеров. Лидером невозможно стать по принуждению, лидер - это ваш выбор. Хотите иметь успешный бизнес - вам необходимы все качества лидера. Как стать лидером и какие качества присущи истинному лидеру?
Продолжительность: 00:58:33
Качество видео: CamRip
Видео: AVC/H.264, 720х480@854х480, ~1712 Kbps
Аудио: AAC, 2 ch, 192 Kbps, CBR

Mediainfo:

General
Complete name                            : C:\Torrents\Гандапас Радислав - Естественный отбор - эволюция лидера.mp4
Format                                   : MPEG-4
Format profile                           : Base Media
Codec ID                                 : isom
File size                                : 800 MiB
Duration                                 : 58mn 33s
Overall bit rate                         : 1 909 Kbps
Writing application                      : Lavf55.33.100
Video
ID                                       : 1
Format                                   : AVC
Format/Info                              : Advanced Video Codec
Format profile                           : [url=mailto:Main@L3.0]Main@L3.0[/url]
Format settings, CABAC                   : Yes
Format settings, ReFrames                : 2 frames
Format settings, GOP                     : M=1, N=25
Codec ID                                 : avc1
Codec ID/Info                            : Advanced Video Coding
Duration                                 : 58mn 33s
Bit rate                                 : 1 712 Kbps
Width                                    : 720 pixels
Height                                   : 480 pixels
Display aspect ratio                     : 16:9
Frame rate mode                          : Constant
Frame rate                               : 29.970 fps
Standard                                 : NTSC
Color space                              : YUV
Chroma subsampling                       : 4:2:0
Bit depth                                : 8 bits
Scan type                                : Progressive
Bits/(Pixel*Frame)                       : 0.165
Stream size                              : 717 MiB (90%)
Language                                 : English
mdhd_Duration                            : 3513710
Audio
ID                                       : 2
Format                                   : AAC
Format/Info                              : Advanced Audio Codec
Format profile                           : LC
Codec ID                                 : 40
Duration                                 : 58mn 33s
Source duration                          : 58mn 33s
Bit rate mode                            : Constant
Bit rate                                 : 192 Kbps
Channel(s)                               : 2 channels
Channel positions                        : Front: L R
Sampling rate                            : 48.0 KHz
Compression mode                         : Lossy
Stream size                              : 80.4 MiB (10%)
Source stream size                       : 80.4 MiB (10%)
Language                                 : English
mdhd_Duration                            : 3513728
Скриншоты:
Время раздачи: с 20:00 до 23:00 (до появления первых 3-5 скачавших)
Скачать .torrent

Для того, чтобы скачать торрент-файл

Радислав Гандапас | Естественный отбор: эволюция лидера (2014) CamRip [H.264]

с нашего сайта, Вам необходимо Войти на сайт под своим логином! Если у Вас ещё нет логина, тогда Вам нужно сначала Зарегистрироваться!

Как скачивать? · Что такое торрент? · Правила, FAQ'и, инструкции

     Добавлен      Похожие темы Размер     S  |  L     Торрент
13-Ноя-16 21:32 Радислав Гандапас | Личный и профессиональный успех: скрипты и алгоритмы (2015) WEB-DL [H.264] Отв. 0 2,78 GB
29 | 1
Скачать .torrent
13-Ноя-16 21:17 Радислав Гандапас | Скрипты успеха (2014) HDRip Отв. 0 6,12 GB
22 | 0
Скачать .torrent
12-Ноя-16 13:59 Гандапас - Формула мотивации (2014) Отв. 0 493 MB
1 | 0
Скачать .torrent
09-Ноя-16 12:25 Радислав Гандапас | Самоменеджмент и самомотивация (2014) DVDRip [H.264] Отв. 0 375 MB
20 | 0
Скачать .torrent
[Профиль] [ЛС]
Показать сообщения:    
Ответить на тему

Радислав Гандапас | Естественный отбор: эволюция лидера (2014) CamRip [H.264] скачать торрент (torrent)

Текущее время: 16-Янв 13:05

Часовой пояс: UTC ± 0



Вы не можете начинать темы
Вы не можете отвечать на сообщения
Вы не можете редактировать свои сообщения
Вы не можете удалять свои сообщения
Вы не можете голосовать в опросах
Вы не можете прикреплять файлы к сообщениям
Вы не можете скачивать файлы